<?xml version="1.0" standalone="no"?>
<!DOCTYPE svg PUBLIC "-//W3C//DTD SVG 1.1//EN" "http://www.w3.org/Graphics/SVG/1.1/DTD/svg11.dtd" >
<svg xmlns="http://www.w3.org/2000/svg">
<metadata></metadata>
<defs>
<font id="code_lightregular" horiz-adv-x="1204" >
<font-face units-per-em="2048" ascent="1434" descent="-614" />
<missing-glyph horiz-adv-x="720" />
<glyph unicode="&#xfb01;" horiz-adv-x="1374" d="M96 0v1432h772v-31h-741v-668h655v-33h-655v-700h-31zM696 0v29h305v1403h336v-29h-305v-1374h305v-29h-641z" />
<glyph unicode="&#xfb02;" horiz-adv-x="1830" d="M96 0v1432h772v-31h-741v-668h655v-33h-655v-700h-31zM1001 0v1432h33v-1399h770v-33h-803z" />
<glyph horiz-adv-x="2048" />
<glyph horiz-adv-x="2048" />
<glyph unicode="&#xd;" horiz-adv-x="2048" />
<glyph unicode=" "  horiz-adv-x="720" />
<glyph unicode="&#x09;" horiz-adv-x="720" />
<glyph unicode="&#xa0;" horiz-adv-x="720" />
<glyph unicode="!" horiz-adv-x="208" d="M74 20q0 14 9.5 23.5t22.5 9.5q14 0 23.5 -9.5t9.5 -23.5q0 -12 -10 -21t-23 -9t-22.5 9t-9.5 21zM90 182v1245h33v-1245h-33z" />
<glyph unicode="&#x22;" horiz-adv-x="346" d="M90 1030v406h33v-406h-33zM219 1030v406h33v-406h-33z" />
<glyph unicode="$" horiz-adv-x="1083" d="M47 350l33 4l2 -14q7 -76 50 -138.5t106.5 -101.5t137.5 -60.5t148 -23.5v691q-45 5 -74.5 8.5t-71.5 10.5t-69.5 15t-63 21.5t-58 30t-47.5 40t-39.5 52.5t-25.5 66.5t-14 82.5q-12 134 68 240q63 82 168.5 127.5t226.5 48.5v121h29v-121q105 -1 197 -35t160 -105.5 t87 -170.5l2 -17l-30 -6l-2 17q-18 89 -78 155q-61 63 -150 96t-186 35v-684q184 -20 260 -44q161 -50 207 -184q6 -18 10 -38q23 -107 -10.5 -199t-105 -151.5t-166 -94.5t-195.5 -38v-133h-29v133q-80 2 -158.5 25.5t-147 66t-114.5 109.5t-55 149zM92 1036 q4 -51 19.5 -92.5t36 -70t55.5 -51t66 -35.5t80 -23.5t84 -15.5t91 -11v682q-109 -3 -208.5 -44t-159.5 -120q-74 -91 -64 -219zM553 16q75 2 146.5 21.5t133 58t105 90.5t61 124t0.5 153q-9 42 -28.5 75t-42 55.5t-60.5 40.5t-66.5 28t-80 18.5t-81 12t-87.5 9.5v-686z" />
<glyph unicode="&#x26;" horiz-adv-x="1171" d="M55 406q6 53 23 100t49.5 92.5t87.5 81t127 53.5l66 6v4l-66 9q-215 70 -215 335q0 107 55.5 189.5t140.5 125t188 52.5t195.5 -14.5t165 -89t95.5 -158.5l-31 -6q-21 85 -87.5 143.5t-152 81t-181 13.5t-174.5 -47.5t-131 -113.5t-52 -173q0 -67 18.5 -124t57.5 -106 t110.5 -77.5t167.5 -28.5h664v-31h-164v-408q-10 -67 -42 -124t-86.5 -103t-139 -73t-191.5 -29q-127 -2 -228 32.5t-161 94.5t-88.5 135.5t-20.5 157.5zM88 399q-5 -72 20.5 -139.5t80.5 -122.5t149 -88t215 -33q193 0 300 86t128 217v404h-469q-106 4 -188 -23t-130.5 -75 t-74.5 -105t-31 -121z" />
<glyph unicode="'" horiz-adv-x="239" d="M102 1030v406h33v-406h-33z" />
<glyph unicode="," horiz-adv-x="215" d="M-12 -195l98 248h55l-121 -248h-32z" />
<glyph unicode="." horiz-adv-x="225" d="M82 31q0 18 11 29.5t26 11.5q19 0 30 -11t11 -30q0 -14 -11.5 -25.5t-29.5 -11.5q-15 0 -26 11.5t-11 25.5z" />
<glyph unicode="0" horiz-adv-x="1130" d="M38 720q0 136 34 266t97.5 232t166 164t229.5 62t229.5 -62t166 -164t97.5 -232t34 -266t-34 -266t-97.5 -232t-166 -164t-229.5 -62t-229.5 62t-166 164t-97.5 232t-34 266zM68 720q0 -130 32 -254t92 -221t156.5 -156.5t216.5 -59.5t216.5 59.5t156.5 156.5t92 221 t32 254t-32 254t-92 221t-156.5 156.5t-216.5 59.5t-216.5 -59.5t-156.5 -156.5t-92 -221t-32 -254z" />
<glyph unicode="1" horiz-adv-x="485" d="M-2 944l350 490h33v-1434h-31v1339l6 58h-2l-28 -47l-306 -422z" />
<glyph unicode="2" horiz-adv-x="1042" d="M45 2v31l733 622q83 72 135.5 163t55.5 192q2 78 -27 149.5t-84 126.5t-142 88t-194 33q-108 0 -195.5 -36.5t-141.5 -98t-82.5 -137.5t-28.5 -158h-29q0 88 30.5 169.5t88.5 147t150.5 105t207.5 39.5q224 0 354 -123.5t125 -298.5q-1 -111 -55 -210t-143 -173 l-713 -600h899v-31h-944z" />
<glyph unicode="3" horiz-adv-x="1036" d="M39 315q11 -68 42.5 -125.5t86 -104t139 -73t191.5 -26.5q126 0 227 37t161 97.5t88.5 134.5t20.5 151q-11 112 -96 202t-231 127l-66 4v4l66 9q123 40 189.5 132t66.5 203q0 107 -55.5 189.5t-140.5 125t-188 52.5t-195.5 -14.5t-165 -89t-95.5 -158.5l31 -6 q21 85 87.5 143.5t152 81t181 13.5t174.5 -47.5t131 -113.5t52 -173q0 -65 -24.5 -124t-72 -107t-124.5 -76.5t-174 -28.5h-101v-31h1h1h1h2h1h1h1h2h1h2h1h2h2h2h2h2h2h2h2h3h2h3h2h3h3h3h3h4h4h3h5h4h5h6h8h11h-1q112 0 203 -30.5t147 -80t86 -113t30 -130t-30 -130 t-86 -113t-147 -80t-203 -30.5q-193 0 -300 86t-128 217z" />
<glyph unicode="4" horiz-adv-x="1032" d="M20 371v30l816 1037h32v-1037h133v-30h-133v-371h-30v371h-818zM59 401h779v942l6 58h-2l-29 -47z" />
<glyph unicode="5" horiz-adv-x="1040" d="M39 303l29 10q44 -127 153.5 -203.5t280.5 -76.5q91 0 167.5 24t130.5 65.5t92 96.5t56 117.5t17 128.5q0 122 -65 226.5t-185 156.5q-254 109 -606 -47q-6 3 -18.5 9t-18.5 9v582v31h30h801v-31h-801v-570q95 46 194.5 70t212.5 21t210 -43q133 -55 204.5 -167 t73.5 -247q1 -88 -30.5 -170t-91 -148.5t-156.5 -106.5t-217 -40q-181 0 -298 84t-165 219z" />
<glyph unicode="6" horiz-adv-x="1058" d="M34.5 417.5q-6.5 80.5 14 161.5t66.5 148l501 709h39l-372 -527l-80 -94l2 -2l74 51q110 58 249 58q119 0 215.5 -39.5t156 -104.5t91.5 -148t32 -169t-32 -169t-91.5 -148t-156 -104.5t-215.5 -39.5q-112 0 -204.5 35t-151.5 93t-95 133.5t-42.5 156zM64 461 q0 -80 30 -157t85.5 -137t146 -97t202.5 -37t202.5 37t146 97t85.5 137t30 157t-30 157t-85.5 137t-146 97t-202.5 37t-202.5 -37t-146 -97t-85.5 -137t-30 -157z" />
<glyph unicode="7" horiz-adv-x="1011" d="M23 1401v31h960v-33l-766 -1399h-39l766 1401h-921z" />
<glyph unicode="8" horiz-adv-x="1060" d="M39.5 319.5q-10.5 65.5 4.5 132.5t53 124.5t105 103.5t154 68l88 6v4l-86 8q-122 41 -188 134.5t-66 203.5q1 89 38.5 159.5t99 113t135.5 65t153 22.5q102 0 185 -30.5t134.5 -82t79 -115.5t27.5 -134q0 -110 -67 -203t-189 -133l-65 -8l-2 -4l67 -4 q116 -30 195.5 -99.5t109 -154t14.5 -175.5t-71 -165.5t-165.5 -123t-252.5 -48.5q-108 0 -197.5 28t-148.5 74t-96.5 107t-48 126.5zM66 375.5q0 -67.5 30 -132.5t85.5 -116t146 -82t202.5 -31t202.5 31t146 82t85.5 116t30 132.5t-30 132.5t-85.5 116t-146 82t-202.5 31 t-202.5 -31t-146 -82t-85.5 -116t-30 -132.5zM135 1102q0 -64 25 -122.5t72 -106.5t124.5 -76.5t173.5 -28.5t173 28.5t124 76.5t72 107t25 124q0 82 -35 147.5t-92.5 104t-126 58.5t-140.5 20q-74 0 -142.5 -20t-126 -59.5t-92 -105t-34.5 -147.5z" />
<glyph unicode="9" horiz-adv-x="1064" d="M51 898.5q-9 76.5 0 153t49 146t97.5 123t146.5 85.5t195 32q112 0 204.5 -35t151.5 -93t95 -134t42.5 -156.5t-14 -161t-66.5 -147.5l-501 -711h-37l370 526l80 97h-2l-74 -52q-108 -57 -249 -57q-106 0 -195 31.5t-146.5 85t-97.5 122.5t-49 145.5zM75 976 q0 -80 30 -157.5t85.5 -137.5t146 -97t202.5 -37t203 37t147 97t86 137.5t30 157.5t-30 157.5t-86 137.5t-147 97t-203 37t-202.5 -37t-146 -97t-85.5 -137.5t-30 -157.5z" />
<glyph unicode=":" horiz-adv-x="245" d="M82 31q0 18 11 29.5t26 11.5q19 0 30 -11t11 -30q0 -14 -11.5 -25.5t-29.5 -11.5q-15 0 -26 11.5t-11 25.5zM82 700q0 18 11 29.5t26 11.5q19 0 30 -11t11 -30q0 -14 -11.5 -25t-29.5 -11q-15 0 -26 11t-11 25z" />
<glyph unicode=";" horiz-adv-x="245" d="M2 -195h33l121 248h-58zM82 700q0 18 11 29.5t26 11.5q19 0 30 -11t11 -30q0 -14 -11.5 -25t-29.5 -11q-15 0 -26 11t-11 25z" />
<glyph unicode="?" horiz-adv-x="985" d="M23 1180q54 114 163.5 183t266.5 69q113 0 206 -35t152 -94.5t91 -136t30 -160.5q-1 -63 -18.5 -116t-39.5 -87t-62 -67t-68 -50t-76 -43q-99 -52 -131 -79q-69 -59 -68 -148l2 -234h-33v236q0 35 7.5 64.5t26.5 54.5t34.5 41.5t49 37.5t50.5 30t58 30q41 22 68.5 39 t61.5 46.5t54 61t34.5 78.5t16.5 103q2 78 -26.5 149.5t-83.5 126.5t-142 88t-194 33q-147 0 -250.5 -65t-153.5 -171q-6 2 -14.5 8t-11.5 7zM422 20q0 14 10 23.5t23 9.5q12 0 21 -10t9 -23q0 -12 -9 -21t-21 -9q-13 0 -23 9t-10 21z" />
<glyph unicode="A" d="M8 0l576 1454h34l576 -1454h-35l-196 481h-725l-195 -481h-35zM252 512h698l-350 899z" />
<glyph unicode="B" horiz-adv-x="1150" d="M96 0v1432h580q112 0 188.5 -55.5t112.5 -147.5q25 -65 25 -138t-25 -139q-51 -128 -168 -178q101 -18 172 -83t101 -151q24 -69 23 -144q0 -18 -1 -36q-7 -96 -48 -175.5t-125.5 -132t-197.5 -52.5h-637zM129 31h604q83 0 149.5 31t108 81.5t63.5 115t22 132t-22 132 t-63.5 115t-108 81.5t-149.5 31h-604v-719zM129 782h547q100 0 169.5 50.5t102.5 132.5q24 63 24 126t-24 126q-33 82 -102 132t-170 50h-547v-617z" />
<glyph unicode="C" horiz-adv-x="1454" d="M55 715q0 144 54.5 274.5t150.5 229.5q97 100 224.5 155.5t271.5 55.5t271 -55.5t224 -155.5q96 -99 148 -224h-35q-48 111 -135 201q-92 95 -214.5 148t-258.5 53t-258.5 -53t-214.5 -148q-93 -96 -145 -220t-52 -261q0 -138 52 -263t145 -219q92 -95 214.5 -148.5 t258.5 -53.5t258.5 53.5t214.5 148.5q88 92 135 199h35q-51 -123 -148 -223t-224 -155.5t-271 -55.5t-271.5 55.5t-224.5 155.5q-96 99 -150.5 229.5t-54.5 276.5z" />
<glyph unicode="D" horiz-adv-x="1333" d="M94 0v1432h484q170 0 307.5 -61.5t222 -162t130.5 -229.5t46 -263t-46 -263t-130.5 -229.5t-222 -162t-307.5 -61.5h-484zM125 31h453q163 0 294.5 59t212 155t124.5 219.5t44 251.5t-44 251.5t-124.5 219.5t-212 155t-294.5 59h-453v-1370z" />
<glyph unicode="E" horiz-adv-x="944" d="M96 0v1432h791v-31h-758v-668h741v-33h-741v-669h762v-31h-791h-4z" />
<glyph unicode="F" horiz-adv-x="903" d="M96 0v1432h772v-31h-741v-668h655v-33h-655v-700h-31z" />
<glyph unicode="G" horiz-adv-x="1484" d="M55 715q0 147 54.5 280.5t150.5 235.5q97 102 225.5 158.5t272.5 56.5q141 0 270.5 -53t228 -154.5t144.5 -234.5h-35q-72 189 -239.5 299t-368.5 110q-136 0 -258 -54.5t-217 -152.5q-92 -98 -143.5 -224t-51.5 -267q0 -142 51.5 -269t143.5 -223q94 -99 216 -153 t259 -54q143 0 281.5 68.5t238 192t125.5 270.5h-633v33h674q-5 -67 -35 -144q-46 -127 -152 -232.5t-238.5 -163.5t-260.5 -58q-143 0 -272 57.5t-226 159.5q-96 101 -150.5 234t-54.5 282z" />
<glyph unicode="H" horiz-adv-x="1153" d="M96 0v1432h31v-691h899v691h33v-1432h-33v711h-899v-711h-31z" />
<glyph unicode="I" horiz-adv-x="698" d="M29 0v31h305v1372h-305v29h641v-29h-305v-1372h305v-31h-641z" />
<glyph unicode="J" horiz-adv-x="808" d="M20 0v33q143 0 262.5 34.5t211 102.5t143 179.5t51.5 256.5v797h-442v29h473v-826q0 -152 -54 -269.5t-150 -190t-221 -109.5t-274 -37z" />
<glyph unicode="K" horiz-adv-x="976" d="M96 0v1432h31v-1432h-31zM174 700v33l713 699h41l-725 -713l813 -719h-47z" />
<glyph unicode="L" horiz-adv-x="931" d="M96 0v1432h33v-1399h770v-33h-803z" />
<glyph unicode="M" horiz-adv-x="1447" d="M96 0v1434h33l594 -879l596 879h33v-1434h-31v1386l-584 -868h-26l-584 868v-1386h-31z" />
<glyph unicode="N" d="M96 0v1436l29 -2l952 -1377v1377h31v-1434h-33l-946 1368v-1368h-33z" />
<glyph unicode="O" horiz-adv-x="1552" d="M43 717q0 149 57 283.5t158 236.5q100 103 233.5 160t282.5 57q150 0 283 -57t235 -160q101 -102 158 -236.5t57 -283.5t-57 -283.5t-158 -236.5q-102 -103 -235 -160t-283 -57q-149 0 -282.5 57t-233.5 160q-101 102 -158 236.5t-57 283.5zM76 717q0 -143 54.5 -270.5 t150.5 -225.5q97 -99 224 -154t269 -55t270.5 55t225.5 154q96 97 149.5 225t53.5 271t-53.5 270t-149.5 225q-97 99 -225.5 154t-270.5 55t-269 -55t-224 -154q-96 -98 -150.5 -225t-54.5 -270z" />
<glyph unicode="P" horiz-adv-x="1067" d="M96 0v1417v17h17h479q104 0 187.5 -38t135 -100.5t79.5 -142.5t28 -163.5t-28 -163.5t-79.5 -142.5t-135 -100.5t-187.5 -38h-463v-545h-33zM129 575h463q96 0 174 35.5t126 93.5t74 132.5t26 151.5t-26 151.5t-74 132.5t-126 93.5t-174 35.5h-463v-826z" />
<glyph unicode="Q" horiz-adv-x="1568" d="M51 717q0 149 57 283.5t158 236.5q100 103 233.5 160t282.5 57q150 0 283 -57t235 -160q101 -103 158.5 -237t57.5 -283t-57.5 -283t-158.5 -237l222 -197h-54l-194 172q-98 -92 -224.5 -142t-267.5 -50q-149 0 -282.5 57t-233.5 160q-101 102 -158 236.5t-57 283.5z M84 717q0 -143 54.5 -270.5t150.5 -225.5q97 -99 224 -154t269 -55q132 0 252.5 48t214.5 135l-432 383h49l408 -361l4 4q96 98 150.5 225.5t54.5 270.5t-54.5 270t-150.5 225q-97 99 -225 154t-271 55q-142 0 -269 -55t-224 -154q-96 -98 -150.5 -225t-54.5 -270z" />
<glyph unicode="R" horiz-adv-x="1079" d="M96 0v1417v17h17h479q104 0 187.5 -36t135 -95t79.5 -134t28 -154t-28 -154t-79.5 -134t-135 -95t-187.5 -36h-232l660 -596h-47l-660 596v31h279q96 0 174 33.5t126 87.5t74 123.5t26 142.5t-26 142.5t-74 123.5t-126 87.5t-174 33.5h-465v-1401h-31z" />
<glyph unicode="S" horiz-adv-x="1124" d="M72 350l32 4l2 -14q11 -102 85 -178t172 -111t200 -35q96 0 186 30.5t160 85.5t103 142q20 53 20 112q0 37 -8 77q-15 68 -55 114t-96 68.5t-124.5 35.5t-141.5 19.5t-145 15t-137 27.5t-116 51.5t-84 93t-39 146.5q-2 17 -2 34q0 113 70 206q51 66 132 109q80 43 170 59 q52 9 106 9q39 -1 78 -5q94 -12 172.5 -47t135.5 -103t74 -157l2 -17l-31 -6l-2 17q-18 89 -78 155q-63 67 -159 100q-91 31 -187 31h-12q-110 -2 -212 -43t-163 -121q-64 -79 -65 -188q0 -15 2 -31q8 -102 58.5 -164.5t127 -87.5t168.5 -36.5t186.5 -21.5t176 -31 t142.5 -77t81 -149q10 -44 9.5 -85.5t-9.5 -81.5q-19 -78 -67.5 -134.5t-117.5 -98.5t-149 -62.5t-162 -20.5q-80 0 -161 23t-151 65t-118 110.5t-57 151.5z" />
<glyph unicode="T" horiz-adv-x="1067" d="M18 1401v33h1022v-33h-495v-1407h-31v1407h-496z" />
<glyph unicode="U" horiz-adv-x="1206" d="M102 389v1043h33v-1045q0 -72 28 -133.5t74.5 -104.5t107 -73.5t126.5 -45t133 -14.5q84 0 166 24t150.5 68.5t110.5 117.5t42 163v1043h33v-1045q0 -95 -45 -173.5t-118 -127.5t-161 -75.5t-178 -26.5q-72 0 -143.5 16.5t-136 50t-114 80.5t-79 114t-29.5 144z" />
<glyph unicode="V" horiz-adv-x="1208" d="M12 1432h35l557 -1414l559 1414h35l-575 -1455h-35z" />
<glyph unicode="W" horiz-adv-x="1742" d="M8 1432h33l461 -1393l344 975h45l344 -975l463 1393h33l-480 -1446h-28l-355 1001l-352 -1001h-29z" />
<glyph unicode="X" horiz-adv-x="1110" d="M20 0l519 715l-519 717h39l498 -689l500 689h37l-519 -717l519 -715h-37l-500 688l-498 -688h-39z" />
<glyph unicode="Y" horiz-adv-x="1103" d="M8 1432h39l504 -807l504 807h39l-527 -840v-592h-32v592z" />
<glyph unicode="Z" horiz-adv-x="1132" d="M20 29l1041 1370h-995v33h1011l23 -37l-1039 -1364h1043v-31h-1065z" />
<glyph unicode="`" horiz-adv-x="503" d="M152 1640h55l119 -153h-39z" />
<glyph unicode="a" d="M8 0l576 1454h34l576 -1454h-35l-196 481h-725l-195 -481h-35zM252 512h698l-350 899z" />
<glyph unicode="b" horiz-adv-x="1150" d="M96 0v1432h580q112 0 188.5 -55.5t112.5 -147.5q25 -65 25 -138t-25 -139q-51 -128 -168 -178q101 -18 172 -83t101 -151q24 -69 23 -144q0 -18 -1 -36q-7 -96 -48 -175.5t-125.5 -132t-197.5 -52.5h-637zM129 31h604q83 0 149.5 31t108 81.5t63.5 115t22 132t-22 132 t-63.5 115t-108 81.5t-149.5 31h-604v-719zM129 782h547q100 0 169.5 50.5t102.5 132.5q24 63 24 126t-24 126q-33 82 -102 132t-170 50h-547v-617z" />
<glyph unicode="c" horiz-adv-x="1458" d="M55 715q0 144 54.5 274.5t150.5 229.5q97 100 224.5 155.5t271.5 55.5t271 -55.5t224 -155.5q96 -99 148 -224h-35q-48 111 -135 201q-92 95 -214.5 148t-258.5 53t-258.5 -53t-214.5 -148q-93 -96 -145 -220t-52 -261q0 -138 52 -263t145 -219q92 -95 214.5 -148.5 t258.5 -53.5t258.5 53.5t214.5 148.5q88 92 135 199h35q-51 -123 -148 -223t-224 -155.5t-271 -55.5t-271.5 55.5t-224.5 155.5q-96 99 -150.5 229.5t-54.5 276.5z" />
<glyph unicode="d" horiz-adv-x="1333" d="M94 0v1432h484q170 0 307.5 -61.5t222 -162t130.5 -229.5t46 -263t-46 -263t-130.5 -229.5t-222 -162t-307.5 -61.5h-484zM125 31h453q163 0 294.5 59t212 155t124.5 219.5t44 251.5t-44 251.5t-124.5 219.5t-212 155t-294.5 59h-453v-1370z" />
<glyph unicode="e" horiz-adv-x="944" d="M96 0v1432h791v-31h-758v-668h741v-33h-741v-669h762v-31h-791h-4z" />
<glyph unicode="f" horiz-adv-x="903" d="M96 0v1432h772v-31h-741v-668h655v-33h-655v-700h-31z" />
<glyph unicode="g" horiz-adv-x="1476" d="M55 715q0 147 54.5 280.5t150.5 235.5q97 102 225.5 158.5t272.5 56.5q141 0 270.5 -53t228 -154.5t144.5 -234.5h-35q-72 189 -239.5 299t-368.5 110q-136 0 -258 -54.5t-217 -152.5q-92 -98 -143.5 -224t-51.5 -267q0 -142 51.5 -269t143.5 -223q94 -99 216 -153 t259 -54q143 0 281.5 68.5t238 192t125.5 270.5h-633v33h674q-5 -67 -35 -144q-46 -127 -152 -232.5t-238.5 -163.5t-260.5 -58q-143 0 -272 57.5t-226 159.5q-96 101 -150.5 234t-54.5 282z" />
<glyph unicode="h" horiz-adv-x="1153" d="M96 0v1432h31v-691h899v691h33v-1432h-33v711h-899v-711h-31z" />
<glyph unicode="i" horiz-adv-x="737" d="M49 0v31h305v1372h-305v29h641v-29h-305v-1372h305v-31h-641z" />
<glyph unicode="j" horiz-adv-x="806" d="M14 0v33q143 0 262.5 34.5t211 102.5t143 179.5t51.5 256.5v797h-442v29h473v-826q0 -152 -54 -269.5t-150 -190t-221 -109.5t-274 -37z" />
<glyph unicode="k" horiz-adv-x="976" d="M96 0v1432h31v-1432h-31zM174 700v33l748 699h41l-760 -713l794 -719h-47z" />
<glyph unicode="l" horiz-adv-x="931" d="M96 0v1432h33v-1399h770v-33h-803z" />
<glyph unicode="m" horiz-adv-x="1447" d="M96 0v1434h33l594 -879l596 879h33v-1434h-31v1386l-584 -868h-26l-584 868v-1386h-31z" />
<glyph unicode="n" d="M96 0v1436l29 -2l952 -1377v1377h31v-1434h-33l-946 1368v-1368h-33z" />
<glyph unicode="o" horiz-adv-x="1576" d="M59 717q0 149 57 283.5t158 236.5q100 103 234 160t283 57q150 0 283 -57t235 -160q101 -102 158 -236.5t57 -283.5t-57 -283.5t-158 -236.5q-102 -103 -235 -160t-283 -57q-149 0 -283 57t-234 160q-101 102 -158 236.5t-57 283.5zM92 717q0 -143 54.5 -270.5 t150.5 -225.5q97 -99 224.5 -154t269.5 -55t270 55t225 154q96 97 149.5 225t53.5 271t-53.5 270t-149.5 225q-97 99 -225 154t-270 55t-269.5 -55t-224.5 -154q-96 -98 -150.5 -225t-54.5 -270z" />
<glyph unicode="p" horiz-adv-x="1075" d="M96 0v1417v17h17h479q104 0 187.5 -38t135 -100.5t79.5 -142.5t28 -163.5t-28 -163.5t-79.5 -142.5t-135 -100.5t-187.5 -38h-463v-545h-33zM129 575h463q96 0 174 35.5t126 93.5t74 132.5t26 151.5t-26 151.5t-74 132.5t-126 93.5t-174 35.5h-463v-826z" />
<glyph unicode="q" horiz-adv-x="1568" d="M43 717q0 149 58 285t156 235t233.5 158t283.5 59q198 0 367.5 -98t269.5 -268t100 -371q0 -148 -58.5 -282.5t-160.5 -237.5l221 -197h-53l-194 172q-98 -92 -224.5 -142t-267.5 -50q-148 0 -283.5 59t-233.5 158t-156 235t-58 285zM76 717q0 -190 93.5 -352 t254.5 -257.5t350 -95.5q132 0 252.5 48t214.5 135l-432 383h49l408 -361l4 4q96 98 150.5 225.5t54.5 270.5q0 142 -56 272.5t-150 225t-223.5 150.5t-271.5 56t-271 -56.5t-222.5 -151t-149 -224.5t-55.5 -272z" />
<glyph unicode="r" horiz-adv-x="1083" d="M96 0v1417v17h17h479q104 0 187.5 -36t135 -95t79.5 -134t28 -154t-28 -154t-79.5 -134t-135 -95t-187.5 -36h-232l660 -596h-47l-660 596v31h279q96 0 174 33.5t126 87.5t74 123.5t26 142.5t-26 142.5t-74 123.5t-126 87.5t-174 33.5h-465v-1401h-31z" />
<glyph unicode="s" horiz-adv-x="1114" d="M55 350l33 4l2 -14q11 -102 85 -178t172 -111t200 -35q96 0 186 30.5t160 85.5t103 142q20 53 20 112q0 37 -8 77q-15 68 -55 114t-96 68.5t-124.5 35.5t-141.5 19.5t-145 15t-137 27.5t-116 51.5t-84 93t-39 146.5q-2 19 -2 37q0 113 69 203q51 66 132 109t171 59 q52 9 105 9q39 -1 79 -5q94 -12 172 -47t135.5 -103t74.5 -157l2 -17l-31 -6l-2 17q-18 89 -78 155q-63 67 -159 100q-91 31 -187 31h-12q-110 -2 -212 -43t-163 -121q-65 -80 -65 -189q0 -15 1 -30q6 -80 38.5 -136t83.5 -85.5t115.5 -46.5t136.5 -24.5t144.5 -14t141 -21 t124.5 -40t97 -76t57 -123.5q10 -46 9.5 -87.5t-9.5 -79.5q-19 -76 -67 -134.5t-116 -99t-148 -61.5t-162 -21q-109 0 -213.5 38t-183.5 120t-91 192z" />
<glyph unicode="t" horiz-adv-x="1067" d="M18 1401v33h1022v-33h-495v-1401h-31v1401h-496z" />
<glyph unicode="u" horiz-adv-x="1191" d="M94 389v1043h33v-1045q0 -72 28 -133.5t74.5 -104.5t107 -73.5t126.5 -45t133 -14.5q84 0 166 24t150.5 68.5t110.5 117.5t42 163v1043h33v-1045q0 -95 -45 -173.5t-118 -127.5t-161 -75.5t-178 -26.5q-72 0 -143.5 16.5t-136 50t-114 80.5t-79 114t-29.5 144z" />
<glyph unicode="v" horiz-adv-x="1208" d="M12 1432h35l557 -1414l559 1414h35l-575 -1455h-35z" />
<glyph unicode="w" horiz-adv-x="1742" d="M8 1432h33l461 -1393l344 975h45l344 -975l463 1393h33l-480 -1446h-28l-355 1001l-352 -1001h-29z" />
<glyph unicode="x" horiz-adv-x="1110" d="M20 0l519 715l-519 717h39l498 -689l500 689h37l-519 -717l519 -715h-37l-500 688l-498 -688h-39z" />
<glyph unicode="y" horiz-adv-x="1103" d="M8 1432h39l504 -807l504 807h39l-527 -840v-592h-32v592z" />
<glyph unicode="z" horiz-adv-x="1134" d="M20 29l1041 1370h-995v33h1011l21 -37l-1037 -1364h1043v-31h-1065z" />
<glyph unicode="&#xa1;" horiz-adv-x="221" d="M74 1397q0 12 9.5 21t22.5 9t23 -9t10 -21q0 -13 -9.5 -23t-23.5 -10q-13 0 -22.5 9.5t-9.5 23.5zM90 -10h33v1245h-33v-1245z" />
<glyph unicode="&#xa5;" horiz-adv-x="1103" d="M8 1432h39l504 -807l504 807h39l-508 -811h229v-33h-248v-96h248v-31h-248v-461h-32v461h-222v31h222v96h-222v33h203z" />
<glyph unicode="&#xa8;" horiz-adv-x="628" d="M154 1565q0 18 10.5 29.5t25.5 11.5q19 0 30 -11t11 -30q0 -14 -11.5 -25.5t-29.5 -11.5q-15 0 -25.5 11.5t-10.5 25.5zM401 1565q0 18 11 29.5t26 11.5q19 0 30 -11t11 -30q0 -14 -11.5 -25.5t-29.5 -11.5q-15 0 -26 11.5t-11 25.5z" />
<glyph unicode="&#xb4;" horiz-adv-x="503" d="M162 1479l119 153h55l-135 -153h-39z" />
<glyph unicode="&#xb7;" horiz-adv-x="337" d="M127 674q0 18 11 29.5t26 11.5q19 0 30 -11t11 -30q0 -14 -11.5 -25.5t-29.5 -11.5q-15 0 -26 11.5t-11 25.5z" />
<glyph unicode="&#xbf;" horiz-adv-x="995" d="M57 416q-2 -84 30 -160.5t91.5 -136t152.5 -94.5t206 -35q157 0 266.5 69t163.5 183q-1 1 -11 6.5t-16 7.5q-50 -106 -153 -171t-250 -65q-107 0 -194 33t-142 88.5t-84 127t-27 149.5q2 56 17 103t35 78.5t54 60.5t61 46t69 39q39 20 57.5 30t51 30.5t48.5 37.5t34.5 42 t26 54.5t7.5 64.5v235h-33l2 -233q0 -27 -6 -50.5t-13 -40t-26.5 -36t-29 -28.5t-39.5 -26.5t-39 -22.5t-45 -24q-48 -26 -75.5 -42.5t-68.5 -50t-63 -67t-39.5 -86.5t-18.5 -116zM504 1401q0 12 9.5 21.5t21.5 9.5q13 0 22.5 -9.5t9.5 -21.5q0 -14 -9.5 -23.5t-22.5 -9.5 q-12 0 -21.5 10t-9.5 23z" />
<glyph unicode="&#xc0;" d="M8 0l576 1454h34l576 -1454h-35l-196 481h-725l-195 -481h-35zM252 512h698l-350 899zM444 1659h56l118 -154h-38z" />
<glyph unicode="&#xc1;" d="M8 0l576 1454h34l576 -1454h-35l-196 481h-725l-195 -481h-35zM252 512h698l-350 899zM582 1505l118 154h56l-135 -154h-39z" />
<glyph unicode="&#xc2;" d="M8 0l576 1454h34l576 -1454h-35l-196 481h-725l-195 -481h-35zM252 512h698l-350 899zM455 1501l118 148h56l119 -148h-33l-113 123l-115 -123h-32z" />
<glyph unicode="&#xc3;" d="M8 0l576 1454h34l576 -1454h-35l-196 481h-725l-195 -481h-35zM252 512h698l-350 899zM426 1516q13 62 61 79q39 13 74.5 1t63.5 -42q36 -39 88 -22q42 17 51 59l22 -6q-13 -62 -65 -80q-29 -12 -61.5 -4t-55.5 33q-24 25 -53.5 35t-56.5 0q-34 -14 -43 -60z" />
<glyph unicode="&#xc4;" d="M8 0l576 1454h34l576 -1454h-35l-196 481h-725l-195 -481h-35zM252 512h698l-350 899zM438 1567q0 18 11 29.5t26 11.5q19 0 30 -11t11 -30q0 -14 -11.5 -25.5t-29.5 -11.5q-15 0 -26 11.5t-11 25.5zM686 1567q0 18 11 29.5t26 11.5q19 0 30 -11t11 -30 q0 -14 -11.5 -25.5t-29.5 -11.5q-15 0 -26 11.5t-11 25.5z" />
<glyph unicode="&#xc5;" d="M8 0l576 1454h34l576 -1454h-35l-196 481h-725l-195 -481h-35zM252 512h698l-350 899zM496 1536q0 43 29.5 73.5t72.5 30.5t73.5 -30.5t30.5 -73.5q0 -44 -31 -74t-75 -30q-41 0 -70.5 30.5t-29.5 73.5zM532 1536q0 -28 19 -48t47 -20t48 20t20 48t-20 48t-48 20t-47 -20 t-19 -48z" />
<glyph unicode="&#xc6;" horiz-adv-x="1695" d="M8 0l803 1434h862v-31h-758v-789h742v-30h-742v-553h762v-31h-794v584h-510l-330 -584h-35zM389 614h494v789h-52z" />
<glyph unicode="&#xc7;" horiz-adv-x="1431" d="M51 715q0 144 54.5 274.5t150.5 229.5q97 100 224.5 155.5t271.5 55.5t271 -55.5t224 -155.5q96 -99 148 -224h-35q-48 111 -135 201q-92 95 -214.5 148t-258.5 53t-258.5 -53t-214.5 -148q-93 -96 -145 -220t-52 -261q0 -138 52 -263t145 -219q92 -95 214.5 -148.5 t258.5 -53.5t258.5 53.5t214.5 148.5q88 92 135 199h35q-51 -123 -148 -223q-96 -99 -221.5 -154.5t-267.5 -56.5l-47 -102q64 -6 114 -35q63 -36 74 -94q4 -16 4 -25q0 -11 -4 -27q-11 -56 -74 -92q-61 -37 -137 -37q-39 0 -88 17q-90 33 -104 104l28 6q5 -16 8 -20 q17 -36 64 -56t92 -20q73 0 123 31q51 30 59 73q2 6 2 21q0 12 -2 18q-8 44 -59 74q-23 14 -50 22t-41.5 10.5t-49.5 6.5l57 125q-136 4 -257.5 59.5t-213.5 151.5q-96 99 -150.5 229.5t-54.5 276.5z" />
<glyph unicode="&#xc8;" horiz-adv-x="901" d="M96 0h4h791v31h-762v669h741v33h-741v668h758v31h-791v-1432zM381 1661h55l119 -154h-39z" />
<glyph unicode="&#xc9;" horiz-adv-x="901" d="M96 0v1432h791v-31h-758v-668h741v-33h-741v-669h762v-31h-791h-4zM446 1503l119 154h56l-136 -154h-39z" />
<glyph unicode="&#xca;" horiz-adv-x="901" d="M96 0v1432h791v-31h-758v-668h741v-33h-741v-669h762v-31h-791h-4zM369 1497l118 148h56l119 -148h-33l-113 123l-115 -123h-32z" />
<glyph unicode="&#xcb;" horiz-adv-x="901" d="M96 0h4h791v31h-762v669h741v33h-741v668h758v31h-791v-1432zM346 1561q0 18 11 29.5t26 11.5q19 0 30 -11t11 -30q0 -14 -11.5 -25.5t-29.5 -11.5q-15 0 -26 11.5t-11 25.5zM594 1561q0 18 11 29.5t26 11.5q19 0 30 -11t11 -30q0 -14 -11.5 -25.5t-29.5 -11.5 q-15 0 -26 11.5t-11 25.5z" />
<glyph unicode="&#xcc;" horiz-adv-x="698" d="M29 0h641v31h-305v1372h305v29h-641v-29h305v-1372h-305v-31zM199 1661h55l119 -154h-39z" />
<glyph unicode="&#xcd;" horiz-adv-x="698" d="M29 0v31h305v1372h-305v29h641v-29h-305v-1372h305v-31h-641zM328 1505l118 154h56l-135 -154h-39z" />
<glyph unicode="&#xce;" horiz-adv-x="698" d="M29 0v31h305v1372h-305v29h641v-29h-305v-1372h305v-31h-641zM203 1501l119 148h55l119 -148h-33l-113 123l-114 -123h-33z" />
<glyph unicode="&#xcf;" horiz-adv-x="698" d="M29 0h641v31h-305v1372h305v29h-641v-29h305v-1372h-305v-31zM188 1565q0 18 11 29.5t26 11.5q19 0 30 -11t11 -30q0 -14 -11.5 -25.5t-29.5 -11.5q-15 0 -26 11.5t-11 25.5zM436 1565q0 18 11 29.5t26 11.5q19 0 30 -11t11 -30q0 -14 -11.5 -25.5t-29.5 -11.5 q-15 0 -26 11.5t-11 25.5z" />
<glyph unicode="&#xd1;" d="M96 0v1436l29 -2l952 -1377v1377h31v-1434h-33l-946 1368v-1368h-33zM438 1526q13 62 62 80q39 13 74 1t63 -42q36 -40 88 -23q42 17 51 60l23 -7q-13 -61 -66 -79q-29 -12 -61.5 -4.5t-55.5 32.5q-24 25 -53.5 35t-56.5 0q-34 -14 -43 -59z" />
<glyph unicode="&#xd2;" horiz-adv-x="1540" d="M39 717q0 -149 57 -283.5t158 -236.5q100 -103 233.5 -160t282.5 -57q150 0 283 57t235 160q101 102 158 236.5t57 283.5t-57 283.5t-158 236.5q-102 103 -235 160t-283 57q-149 0 -282.5 -57t-233.5 -160q-101 -102 -158 -236.5t-57 -283.5zM72 717q0 143 54 270 t150 225q97 99 224.5 154t269.5 55t270.5 -55t225.5 -154q96 -97 149 -224.5t53 -270.5q0 -144 -53 -271.5t-149 -224.5q-97 -99 -225.5 -154t-270.5 -55t-269.5 55t-224.5 154q-96 98 -150 225.5t-54 270.5zM625 1675h55l119 -153h-39z" />
<glyph unicode="&#xd3;" horiz-adv-x="1540" d="M39 717q0 149 57 283.5t158 236.5q100 103 233.5 160t282.5 57q150 0 283 -57t235 -160q101 -102 158 -236.5t57 -283.5t-57 -283.5t-158 -236.5q-102 -103 -235 -160t-283 -57q-149 0 -282.5 57t-233.5 160q-101 102 -158 236.5t-57 283.5zM72 717q0 -143 54 -270.5 t150 -225.5q97 -99 224.5 -154t269.5 -55t270.5 55t225.5 154q96 97 149 224.5t53 271.5q0 143 -53 270.5t-149 224.5q-97 99 -225.5 154t-270.5 55t-269.5 -55t-224.5 -154q-96 -98 -150 -225t-54 -270zM762 1524l119 153h55l-135 -153h-39z" />
<glyph unicode="&#xd4;" horiz-adv-x="1540" d="M39 717q0 149 57 283.5t158 236.5q100 103 233.5 160t282.5 57q150 0 283 -57t235 -160q101 -102 158 -236.5t57 -283.5t-57 -283.5t-158 -236.5q-102 -103 -235 -160t-283 -57q-149 0 -282.5 57t-233.5 160q-101 102 -158 236.5t-57 283.5zM72 717q0 -143 54 -270.5 t150 -225.5q97 -99 224.5 -154t269.5 -55t270.5 55t225.5 154q96 97 149 224.5t53 271.5q0 143 -53 270.5t-149 224.5q-97 99 -225.5 154t-270.5 55t-269.5 -55t-224.5 -154q-96 -98 -150 -225t-54 -270zM625 1511l118 148h56l119 -148h-33l-113 123l-115 -123h-32z" />
<glyph unicode="&#xd5;" horiz-adv-x="1540" d="M39 717q0 149 57 283.5t158 236.5q100 103 233.5 160t282.5 57q150 0 283 -57t235 -160q101 -102 158 -236.5t57 -283.5t-57 -283.5t-158 -236.5q-102 -103 -235 -160t-283 -57q-149 0 -282.5 57t-233.5 160q-101 102 -158 236.5t-57 283.5zM72 717q0 -143 54 -270.5 t150 -225.5q97 -99 224.5 -154t269.5 -55t270.5 55t225.5 154q96 97 149 224.5t53 271.5q0 143 -53 270.5t-149 224.5q-97 99 -225.5 154t-270.5 55t-269.5 -55t-224.5 -154q-96 -98 -150 -225t-54 -270zM598 1536q14 63 61 80q39 13 74.5 1t63.5 -42q36 -40 88 -23 q42 17 51 60l22 -6q-13 -62 -65 -80q-29 -12 -61.5 -4.5t-55.5 32.5q-24 25 -53.5 35t-56.5 0q-34 -14 -43 -59z" />
<glyph unicode="&#xd6;" horiz-adv-x="1540" d="M39 717q0 -149 57 -283.5t158 -236.5q100 -103 233.5 -160t282.5 -57q150 0 283 57t235 160q101 102 158 236.5t57 283.5t-57 283.5t-158 236.5q-102 103 -235 160t-283 57q-149 0 -282.5 -57t-233.5 -160q-101 -102 -158 -236.5t-57 -283.5zM72 717q0 143 54 270 t150 225q97 99 224.5 154t269.5 55t270.5 -55t225.5 -154q96 -97 149 -224.5t53 -270.5q0 -144 -53 -271.5t-149 -224.5q-97 -99 -225.5 -154t-270.5 -55t-269.5 55t-224.5 154q-96 98 -150 225.5t-54 270.5zM606 1573q0 18 11 29.5t26 11.5q19 0 30 -11t11 -30 q0 -14 -11.5 -25.5t-29.5 -11.5q-15 0 -26 11.5t-11 25.5zM854 1573q0 18 11 29.5t26 11.5q19 0 30 -11t11 -30q0 -14 -11.5 -25.5t-29.5 -11.5q-15 0 -26 11.5t-11 25.5z" />
<glyph unicode="&#xd8;" horiz-adv-x="1540" d="M39 717q0 149 57 283.5t158 236.5q100 103 233.5 160t282.5 57q210 0 381 -108l96 151h41l-108 -170q58 -41 108 -90q101 -102 158 -236.5t57 -283.5t-57 -283.5t-158 -236.5q-102 -103 -235 -160t-283 -57q-212 0 -383 108l-102 -160h-39l112 178q-59 43 -104 91 q-101 102 -158 236.5t-57 283.5zM72 717q0 -143 54 -270.5t150 -225.5q46 -49 101 -86l756 1184q-164 102 -363 102q-142 0 -269.5 -55t-224.5 -154q-96 -98 -150 -225t-54 -270zM406 117q164 -105 364 -105q142 0 270.5 55t225.5 154q96 97 149 224.5t53 271.5 q0 143 -53 270.5t-149 224.5q-57 54 -105 86z" />
<glyph unicode="&#xd9;" horiz-adv-x="1191" d="M94 389q0 -77 29.5 -144t79 -114t114 -80.5t136 -50t143.5 -16.5q90 0 178 26.5t161 75.5t118 127.5t45 173.5v1045h-33v-1043q0 -90 -42 -163t-110.5 -117.5t-150.5 -68.5t-166 -24q-67 0 -133 14.5t-126.5 45t-107 73.5t-74.5 104.5t-28 133.5v1045h-33v-1043z M489 1659h56l119 -154h-39z" />
<glyph unicode="&#xda;" horiz-adv-x="1191" d="M94 389v1043h33v-1045q0 -72 28 -133.5t74.5 -104.5t107 -73.5t126.5 -45t133 -14.5q84 0 166 24t150.5 68.5t110.5 117.5t42 163v1043h33v-1045q0 -95 -45 -173.5t-118 -127.5t-161 -75.5t-178 -26.5q-72 0 -143.5 16.5t-136 50t-114 80.5t-79 114t-29.5 144zM565 1505 l119 154h55l-135 -154h-39z" />
<glyph unicode="&#xdb;" horiz-adv-x="1191" d="M94 389v1043h33v-1045q0 -72 28 -133.5t74.5 -104.5t107 -73.5t126.5 -45t133 -14.5q84 0 166 24t150.5 68.5t110.5 117.5t42 163v1043h33v-1045q0 -95 -45 -173.5t-118 -127.5t-161 -75.5t-178 -26.5q-72 0 -143.5 16.5t-136 50t-114 80.5t-79 114t-29.5 144zM453 1501 l118 148h56l118 -148h-32l-113 123l-115 -123h-32z" />
<glyph unicode="&#xdc;" horiz-adv-x="1191" d="M94 389q0 -77 29.5 -144t79 -114t114 -80.5t136 -50t143.5 -16.5q90 0 178 26.5t161 75.5t118 127.5t45 173.5v1045h-33v-1043q0 -90 -42 -163t-110.5 -117.5t-150.5 -68.5t-166 -24q-67 0 -133 14.5t-126.5 45t-107 73.5t-74.5 104.5t-28 133.5v1045h-33v-1043z M455 1565q0 18 11 29.5t26 11.5q19 0 29.5 -11t10.5 -30q0 -14 -11 -25.5t-29 -11.5q-15 0 -26 11.5t-11 25.5zM702 1565q0 18 11 29.5t26 11.5q19 0 30 -11t11 -30q0 -14 -11.5 -25.5t-29.5 -11.5q-15 0 -26 11.5t-11 25.5z" />
<glyph unicode="&#xdd;" horiz-adv-x="1103" d="M8 1432h39l504 -807l504 807h39l-527 -840v-592h-32v592zM512 1485l119 153h55l-135 -153h-39z" />
<glyph unicode="&#xe0;" d="M8 0l576 1454h34l576 -1454h-35l-196 481h-725l-195 -481h-35zM252 512h698l-350 899zM453 1651h55l119 -154h-39z" />
<glyph unicode="&#xe1;" d="M8 0l576 1454h34l576 -1454h-35l-196 481h-725l-195 -481h-35zM252 512h698l-350 899zM578 1493l118 154h56l-136 -154h-38z" />
<glyph unicode="&#xe2;" d="M8 0l576 1454h34l576 -1454h-35l-196 481h-725l-195 -481h-35zM252 512h698l-350 899zM455 1489l118 147h56l119 -147h-33l-113 123l-115 -123h-32z" />
<glyph unicode="&#xe3;" d="M8 0l576 1454h34l576 -1454h-35l-196 481h-725l-195 -481h-35zM252 512h698l-350 899zM422 1509q14 63 61 80q39 13 74.5 1t63.5 -42q36 -39 88 -22q42 17 51 59l22 -6q-13 -62 -65 -80q-29 -12 -61.5 -4t-55.5 33q-24 25 -54 35t-57 0q-34 -14 -43 -60z" />
<glyph unicode="&#xe4;" d="M8 0l576 1454h34l576 -1454h-35l-196 481h-725l-195 -481h-35zM252 512h698l-350 899zM438 1565q0 18 11 29.5t26 11.5q19 0 30 -11t11 -30q0 -14 -11.5 -25.5t-29.5 -11.5q-15 0 -26 11.5t-11 25.5zM686 1565q0 18 11 29.5t26 11.5q19 0 30 -11t11 -30 q0 -14 -11.5 -25.5t-29.5 -11.5q-15 0 -26 11.5t-11 25.5z" />
<glyph unicode="&#xe5;" d="M8 0l576 1454h34l576 -1454h-35l-196 481h-725l-195 -481h-35zM252 512h698l-350 899zM500 1540q0 43 30 74t72 31q43 0 74 -31t31 -74q0 -44 -31 -74t-76 -30q-41 0 -70.5 30.5t-29.5 73.5zM537 1540q0 -28 18.5 -47.5t46.5 -19.5t48 19.5t20 47.5t-20 48t-48 20 q-27 0 -46 -20t-19 -48z" />
<glyph unicode="&#xe6;" horiz-adv-x="1695" d="M8 0l803 1434h862v-31h-758v-789h742v-30h-742v-553h762v-31h-794v584h-510l-330 -584h-35zM389 614h494v789h-52z" />
<glyph unicode="&#xe7;" horiz-adv-x="1349" d="M0 715q0 144 54.5 274.5t150.5 229.5q97 100 224 155.5t271 55.5t271.5 -55.5t224.5 -155.5q94 -97 147 -224h-34q-48 111 -135 201q-92 95 -215 148t-259 53t-258.5 -53t-214.5 -148q-93 -96 -144.5 -220t-51.5 -261q0 -139 52 -263.5t144 -218.5q92 -95 214.5 -148.5 t258.5 -53.5t259 53.5t215 148.5q88 92 135 199h34q-52 -125 -147 -223q-93 -96 -214 -151.5t-257 -59.5l-47 -100q65 -6 115 -35q62 -35 73 -94q4 -16 4 -25q0 -11 -4 -27q-11 -57 -73 -92q-61 -37 -138 -37q-39 0 -88 17q-90 33 -104 104l29 6q5 -16 8 -20 q17 -36 63.5 -56t91.5 -20q73 0 123 31q52 31 60 74q2 6 2 20q0 12 -2 18q-8 43 -60 74q-23 14 -50 22t-41.5 10.5t-49.5 6.5l55 123q-140 1 -266 56.5t-221 154.5q-96 99 -150.5 229.5t-54.5 276.5z" />
<glyph unicode="&#xe8;" horiz-adv-x="901" d="M96 0h4h791v31h-762v669h741v33h-741v668h758v31h-791v-1432zM371 1663h55l119 -154h-39z" />
<glyph unicode="&#xe9;" horiz-adv-x="901" d="M96 0v1432h791v-31h-758v-668h741v-33h-741v-669h762v-31h-791h-4zM463 1505l119 154h55l-135 -154h-39z" />
<glyph unicode="&#xea;" horiz-adv-x="901" d="M96 0v1432h791v-31h-758v-668h741v-33h-741v-669h762v-31h-791h-4zM373 1501l119 148h55l119 -148h-33l-113 123l-114 -123h-33z" />
<glyph unicode="&#xeb;" horiz-adv-x="901" d="M96 0h4h791v31h-762v669h741v33h-741v668h758v31h-791v-1432zM356 1563q0 18 11 29.5t26 11.5q19 0 30 -11t11 -30q0 -14 -11.5 -25.5t-29.5 -11.5q-15 0 -26 11.5t-11 25.5zM604 1563q0 18 11 29.5t26 11.5q19 0 30 -11t11 -30q0 -14 -11.5 -25.5t-29.5 -11.5 q-15 0 -26 11.5t-11 25.5z" />
<glyph unicode="&#xec;" horiz-adv-x="698" d="M29 0h641v31h-305v1372h305v29h-641v-29h305v-1372h-305v-31zM203 1659h55l119 -154h-39z" />
<glyph unicode="&#xed;" horiz-adv-x="698" d="M29 0v31h305v1372h-305v29h641v-29h-305v-1372h305v-31h-641zM328 1507l118 154h56l-135 -154h-39z" />
<glyph unicode="&#xee;" horiz-adv-x="698" d="M29 0v31h305v1372h-305v29h641v-29h-305v-1372h305v-31h-641zM205 1503l119 148h55l119 -148h-33l-113 123l-114 -123h-33z" />
<glyph unicode="&#xef;" horiz-adv-x="698" d="M29 0h641v31h-305v1372h305v29h-641v-29h305v-1372h-305v-31zM188 1565q0 18 11 29.5t26 11.5q19 0 30 -11t11 -30q0 -14 -11.5 -25.5t-29.5 -11.5q-15 0 -26 11.5t-11 25.5zM436 1565q0 18 11 29.5t26 11.5q19 0 30 -11t11 -30q0 -14 -11.5 -25.5t-29.5 -11.5 q-15 0 -26 11.5t-11 25.5z" />
<glyph unicode="&#xf1;" d="M96 0v1436l29 -2l952 -1377v1377h31v-1434h-33l-946 1368v-1368h-33zM434 1530q13 62 62 80q39 13 74 1t63 -42q36 -40 88 -23q42 17 51 60l23 -7q-13 -61 -66 -79q-29 -12 -61.5 -4.5t-55.5 32.5q-24 25 -53.5 35t-56.5 0q-34 -14 -43 -59z" />
<glyph unicode="&#xf2;" horiz-adv-x="1540" d="M39 717q0 -149 57 -283.5t158 -236.5q100 -103 233.5 -160t282.5 -57q150 0 283 57t235 160q101 102 158 236.5t57 283.5t-57 283.5t-158 236.5q-102 103 -235 160t-283 57q-149 0 -282.5 -57t-233.5 -160q-101 -102 -158 -236.5t-57 -283.5zM72 717q0 143 54 270 t150 225q97 99 224.5 154t269.5 55t270.5 -55t225.5 -154q96 -97 149 -224.5t53 -270.5q0 -144 -53 -271.5t-149 -224.5q-97 -99 -225.5 -154t-270.5 -55t-269.5 55t-224.5 154q-96 98 -150 225.5t-54 270.5zM651 1683h56l118 -153h-39z" />
<glyph unicode="&#xf3;" horiz-adv-x="1540" d="M39 717q0 149 57 283.5t158 236.5q100 103 233.5 160t282.5 57q150 0 283 -57t235 -160q101 -102 158 -236.5t57 -283.5t-57 -283.5t-158 -236.5q-102 -103 -235 -160t-283 -57q-149 0 -282.5 57t-233.5 160q-101 102 -158 236.5t-57 283.5zM72 717q0 -143 54 -270.5 t150 -225.5q97 -99 224.5 -154t269.5 -55t270.5 55t225.5 154q96 97 149 224.5t53 271.5q0 143 -53 270.5t-149 224.5q-97 99 -225.5 154t-270.5 55t-269.5 -55t-224.5 -154q-96 -98 -150 -225t-54 -270zM772 1526l119 153h55l-135 -153h-39z" />
<glyph unicode="&#xf4;" horiz-adv-x="1540" d="M39 717q0 149 57 283.5t158 236.5q100 103 233.5 160t282.5 57q150 0 283 -57t235 -160q101 -102 158 -236.5t57 -283.5t-57 -283.5t-158 -236.5q-102 -103 -235 -160t-283 -57q-149 0 -282.5 57t-233.5 160q-101 102 -158 236.5t-57 283.5zM72 717q0 -143 54 -270.5 t150 -225.5q97 -99 224.5 -154t269.5 -55t270.5 55t225.5 154q96 97 149 224.5t53 271.5q0 143 -53 270.5t-149 224.5q-97 99 -225.5 154t-270.5 55t-269.5 -55t-224.5 -154q-96 -98 -150 -225t-54 -270zM645 1524l119 147h55l119 -147h-33l-112 123l-115 -123h-33z" />
<glyph unicode="&#xf5;" horiz-adv-x="1540" d="M39 717q0 149 57 283.5t158 236.5q100 103 233.5 160t282.5 57q150 0 283 -57t235 -160q101 -102 158 -236.5t57 -283.5t-57 -283.5t-158 -236.5q-102 -103 -235 -160t-283 -57q-149 0 -282.5 57t-233.5 160q-101 102 -158 236.5t-57 283.5zM72 717q0 -143 54 -270.5 t150 -225.5q97 -99 224.5 -154t269.5 -55t270.5 55t225.5 154q96 97 149 224.5t53 271.5q0 143 -53 270.5t-149 224.5q-97 99 -225.5 154t-270.5 55t-269.5 -55t-224.5 -154q-96 -98 -150 -225t-54 -270zM625 1542q14 63 61 80q39 13 74 1t63 -42q36 -39 88 -22q43 17 52 59 l22 -6q-13 -62 -65 -80q-29 -12 -61.5 -4t-55.5 33q-24 25 -54 34.5t-57 -0.5q-34 -14 -43 -59z" />
<glyph unicode="&#xf6;" horiz-adv-x="1540" d="M39 717q0 -149 57 -283.5t158 -236.5q100 -103 233.5 -160t282.5 -57q150 0 283 57t235 160q101 102 158 236.5t57 283.5t-57 283.5t-158 236.5q-102 103 -235 160t-283 57q-149 0 -282.5 -57t-233.5 -160q-101 -102 -158 -236.5t-57 -283.5zM72 717q0 143 54 270 t150 225q97 99 224.5 154t269.5 55t270.5 -55t225.5 -154q96 -97 149 -224.5t53 -270.5q0 -144 -53 -271.5t-149 -224.5q-97 -99 -225.5 -154t-270.5 -55t-269.5 55t-224.5 154q-96 98 -150 225.5t-54 270.5zM627 1585q0 18 11 29.5t26 11.5q19 0 30 -11t11 -30 q0 -14 -11.5 -25.5t-29.5 -11.5q-15 0 -26 11.5t-11 25.5zM874 1585q0 18 11 29.5t26 11.5q19 0 30 -11t11 -30q0 -14 -11.5 -25.5t-29.5 -11.5q-15 0 -26 11.5t-11 25.5z" />
<glyph unicode="&#xf8;" horiz-adv-x="1540" d="M39 717q0 149 57 283.5t158 236.5q100 103 233.5 160t282.5 57q210 0 381 -108l96 151h41l-108 -170q58 -41 108 -90q101 -102 158 -236.5t57 -283.5t-57 -283.5t-158 -236.5q-102 -103 -235 -160t-283 -57q-212 0 -383 108l-102 -160h-39l112 178q-59 43 -104 91 q-101 102 -158 236.5t-57 283.5zM72 717q0 -143 54 -270.5t150 -225.5q46 -49 101 -86l756 1184q-164 102 -363 102q-142 0 -269.5 -55t-224.5 -154q-96 -98 -150 -225t-54 -270zM406 117q164 -105 364 -105q142 0 270.5 55t225.5 154q96 97 149 224.5t53 271.5 q0 143 -53 270.5t-149 224.5q-57 54 -105 86z" />
<glyph unicode="&#xf9;" horiz-adv-x="1191" d="M94 389q0 -77 29.5 -144t79 -114t114 -80.5t136 -50t143.5 -16.5q90 0 178 26.5t161 75.5t118 127.5t45 173.5v1045h-33v-1043q0 -90 -42 -163t-110.5 -117.5t-150.5 -68.5t-166 -24q-67 0 -133 14.5t-126.5 45t-107 73.5t-74.5 104.5t-28 133.5v1045h-33v-1043z M471 1661h55l119 -154h-39z" />
<glyph unicode="&#xfa;" horiz-adv-x="1191" d="M94 389v1043h33v-1045q0 -72 28 -133.5t74.5 -104.5t107 -73.5t126.5 -45t133 -14.5q84 0 166 24t150.5 68.5t110.5 117.5t42 163v1043h33v-1045q0 -95 -45 -173.5t-118 -127.5t-161 -75.5t-178 -26.5q-72 0 -143.5 16.5t-136 50t-114 80.5t-79 114t-29.5 144zM575 1503 l119 154h56l-136 -154h-39z" />
<glyph unicode="&#xfb;" horiz-adv-x="1191" d="M94 389v1043h33v-1045q0 -72 28 -133.5t74.5 -104.5t107 -73.5t126.5 -45t133 -14.5q84 0 166 24t150.5 68.5t110.5 117.5t42 163v1043h33v-1045q0 -95 -45 -173.5t-118 -127.5t-161 -75.5t-178 -26.5q-72 0 -143.5 16.5t-136 50t-114 80.5t-79 114t-29.5 144zM449 1516 l118 147h56l118 -147h-32l-113 122l-115 -122h-32z" />
<glyph unicode="&#xfc;" horiz-adv-x="1191" d="M94 389q0 -77 29.5 -144t79 -114t114 -80.5t136 -50t143.5 -16.5q90 0 178 26.5t161 75.5t118 127.5t45 173.5v1045h-33v-1043q0 -90 -42 -163t-110.5 -117.5t-150.5 -68.5t-166 -24q-67 0 -133 14.5t-126.5 45t-107 73.5t-74.5 104.5t-28 133.5v1045h-33v-1043z M436 1565q0 18 11 29.5t26 11.5q19 0 30 -11t11 -30q0 -14 -11.5 -25.5t-29.5 -11.5q-15 0 -26 11.5t-11 25.5zM684 1565q0 18 11 29.5t26 11.5q19 0 30 -11t11 -30q0 -14 -11.5 -25.5t-29.5 -11.5q-15 0 -26 11.5t-11 25.5z" />
<glyph unicode="&#xfd;" horiz-adv-x="1103" d="M8 1432h39l504 -807l504 807h39l-527 -840v-592h-32v592zM510 1505l119 154h55l-135 -154h-39z" />
<glyph unicode="&#xff;" horiz-adv-x="1103" d="M8 1432l527 -840v-592h32v592l527 840h-39l-504 -807l-504 807h-39zM393 1565q0 18 11 29.5t26 11.5q19 0 30 -11t11 -30q0 -14 -11.5 -25.5t-29.5 -11.5q-15 0 -26 11.5t-11 25.5zM641 1565q0 18 11 29.5t26 11.5q19 0 30 -11t11 -30q0 -14 -11.5 -25.5t-29.5 -11.5 q-15 0 -26 11.5t-11 25.5z" />
<glyph unicode="&#x152;" horiz-adv-x="1697" d="M39 717q0 151 58 294t157 244q189 195 516 195q58 0 123 -10h788v-31h-757v-676h741v-33h-741v-673h762v-31h-777q-68 -12 -139 -12q-324 0 -516 198q-100 101 -157.5 243t-57.5 292zM72 717q0 -145 54.5 -279.5t149.5 -230.5q188 -191 494 -191q60 0 121 9v1382 q-65 10 -121 10q-311 0 -494 -186q-95 -96 -149.5 -232.5t-54.5 -281.5z" />
<glyph unicode="&#x153;" horiz-adv-x="1697" d="M39 717q0 151 58 294t157 244q189 195 516 195q58 0 123 -10h788v-31h-757v-676h741v-33h-741v-673h762v-31h-777q-68 -12 -139 -12q-324 0 -516 198q-100 101 -157.5 243t-57.5 292zM72 717q0 -145 54.5 -279.5t149.5 -230.5q188 -191 494 -191q60 0 121 9v1382 q-65 10 -121 10q-311 0 -494 -186q-95 -96 -149.5 -232.5t-54.5 -281.5z" />
<glyph unicode="&#x178;" horiz-adv-x="1103" d="M8 1432l527 -840v-592h32v592l527 840h-39l-504 -807l-504 807h-39zM389 1565q0 18 11 29.5t26 11.5q19 0 30 -11t11 -30q0 -14 -11.5 -25.5t-29.5 -11.5q-15 0 -26 11.5t-11 25.5zM637 1565q0 18 11 29.5t26 11.5q19 0 30 -11t11 -30q0 -14 -11.5 -25.5t-29.5 -11.5 q-15 0 -26 11.5t-11 25.5z" />
<glyph unicode="&#x2c6;" horiz-adv-x="638" d="M180 1477l119 147h55l119 -147h-33l-112 122l-115 -122h-33z" />
<glyph unicode="&#x2dc;" horiz-adv-x="712" d="M174 1497q13 62 62 80q39 13 74 1t63 -42q36 -40 88 -23q42 17 51 60l23 -6q-13 -62 -66 -80q-29 -12 -61.5 -4t-55.5 33q-24 25 -53.5 34.5t-56.5 -0.5q-34 -14 -43 -59z" />
<glyph unicode="&#x2000;" horiz-adv-x="841" />
<glyph unicode="&#x2001;" horiz-adv-x="1683" />
<glyph unicode="&#x2002;" horiz-adv-x="841" />
<glyph unicode="&#x2003;" horiz-adv-x="1683" />
<glyph unicode="&#x2004;" horiz-adv-x="561" />
<glyph unicode="&#x2005;" horiz-adv-x="420" />
<glyph unicode="&#x2006;" horiz-adv-x="280" />
<glyph unicode="&#x2007;" horiz-adv-x="280" />
<glyph unicode="&#x2008;" horiz-adv-x="210" />
<glyph unicode="&#x2009;" horiz-adv-x="336" />
<glyph unicode="&#x200a;" horiz-adv-x="93" />
<glyph unicode="&#x2026;" horiz-adv-x="798" d="M98 33q0 18 11 29.5t26 11.5q19 0 30 -11t11 -30q0 -14 -11.5 -25.5t-29.5 -11.5q-15 0 -26 11.5t-11 25.5zM338 33q0 18 11 29.5t26 11.5q19 0 30 -11t11 -30q0 -14 -11.5 -25.5t-29.5 -11.5q-15 0 -26 11.5t-11 25.5zM573 33q0 18 11 29.5t26 11.5q19 0 30 -11t11 -30 q0 -14 -11.5 -25.5t-29.5 -11.5q-15 0 -26 11.5t-11 25.5z" />
<glyph unicode="&#x202f;" horiz-adv-x="336" />
<glyph unicode="&#x205f;" horiz-adv-x="420" />
<glyph unicode="&#x20ac;" horiz-adv-x="1443" d="M-18 645v33h94v37v43h-94v33h98q24 244 201 428q97 100 224 155.5t271 55.5t271.5 -55.5t224.5 -155.5q94 -97 147 -224h-35q-48 111 -135 201q-92 95 -214.5 148t-258.5 53t-258.5 -53t-214.5 -148q-169 -177 -192 -405h372v-33h-377v-43v-37h377v-33h-374 q24 -242 194 -412q92 -95 214.5 -148.5t258.5 -53.5t258.5 53.5t214.5 148.5q88 92 135 199h35q-52 -125 -147 -223q-97 -100 -224.5 -155.5t-271.5 -55.5t-271 55.5t-224 155.5q-179 183 -203 436h-96z" />
<glyph unicode="&#x25fc;" horiz-adv-x="1433" d="M0 0v1434h1434v-1434h-1434z" />
</font>
</defs>
</svg>
