<?xml version="1.0" standalone="no"?>
<!DOCTYPE svg PUBLIC "-//W3C//DTD SVG 1.1//EN" "http://www.w3.org/Graphics/SVG/1.1/DTD/svg11.dtd" >
<svg xmlns="http://www.w3.org/2000/svg">
<metadata></metadata>
<defs>
<font id="intro_inlineregular" horiz-adv-x="1458" >
<font-face units-per-em="2048" ascent="1536" descent="-512" />
<missing-glyph horiz-adv-x="563" />
<glyph horiz-adv-x="2048" />
<glyph horiz-adv-x="2048" />
<glyph unicode="&#xd;" horiz-adv-x="2048" />
<glyph unicode=" "  horiz-adv-x="563" />
<glyph unicode="&#x09;" horiz-adv-x="563" />
<glyph unicode="&#xa0;" horiz-adv-x="563" />
<glyph unicode="!" horiz-adv-x="722" d="M158 1464h409l-22 -1026h-357zM166 197q0 85 57 136.5t144 51.5q86 0 143 -51.5t57 -136.5q0 -83 -57 -135t-143 -52t-143.5 52t-57.5 135zM256 197q0 -46 32 -73.5t79 -27.5t78.5 27.5t31.5 73.5t-31.5 73t-78.5 27t-79 -27t-32 -73zM274 197q0 -37 27.5 -59.5 t65.5 -22.5q39 0 65.5 22.5t26.5 59.5t-26.5 60.5t-65.5 23.5q-38 0 -65.5 -23.5t-27.5 -60.5zM356 580h19v743h-19v-743z" />
<glyph unicode="&#x26;" horiz-adv-x="1331" d="M97 485q8 92 56.5 179t131.5 147q-51 56 -75.5 126.5t-22 142t34.5 140t87.5 121t144 85t197.5 32.5q129 0 229 -40.5t160 -129.5t54 -215h-324q0 82 -119 82q-45 0 -76 -22.5t-38.5 -54.5t0 -63.5t39.5 -54t79 -22.5h62v-299h-66q-59 0 -102 -26t-62.5 -65.5 t-19.5 -85.5t19.5 -85.5t62.5 -65.5t102 -26q81 0 134 49.5t53 132.5v477h446v-317h-127v-160q0 -236 -135 -364t-371 -128q-141 0 -253.5 45t-178.5 117t-98 164t-24 184zM283 427q5 -58 31.5 -112.5t70.5 -96t112.5 -66.5t151.5 -25q157 0 258 92t101 248v307h174v19h-193 v-326q0 -149 -95.5 -235.5t-244.5 -86.5q-84 0 -152 26t-110 68t-65 97t-24 112.5t19 113.5t58 101.5t100 76t139 36.5v23q-58 6 -105 31t-75.5 61t-43.5 80t-13.5 88.5t20 87t51 75t85 52.5t116.5 20q195 0 252 -123h14q-28 65 -95.5 103.5t-170.5 38.5q-64 0 -116.5 -19 t-87 -51t-56 -73.5t-27 -86.5t4 -91t33 -85t64 -70t93.5 -46v-3q-71 -15 -127 -52t-89 -86t-48 -107t-10 -116z" />
<glyph unicode="," horiz-adv-x="581" d="M78 160q0 85 58 137.5t143 52.5q88 0 146 -52.5t58 -137.5q0 -25 -14 -76l-90 -266h-207l51 162q-65 15 -105 63t-40 117zM170 160q0 -46 31.5 -73.5t77.5 -27.5q37 0 75 23l-57 -176h16l68 200q8 40 8 54q0 46 -31 72t-79 26q-46 0 -77.5 -26t-31.5 -72zM188 160 q0 -38 26 -60t65 -22q41 0 67.5 21.5t26.5 60.5t-26.5 61.5t-67.5 22.5q-38 0 -64.5 -23t-26.5 -61z" />
<glyph unicode="." horiz-adv-x="581" d="M82 174q0 85 58.5 138t146.5 53q85 0 142.5 -53t57.5 -138q0 -83 -57.5 -134.5t-142.5 -51.5q-88 0 -146.5 51.5t-58.5 134.5zM176 174q0 -46 32 -73t79 -27q45 0 76.5 27t31.5 73q0 45 -31.5 71.5t-76.5 26.5q-48 0 -79.5 -26t-31.5 -72zM193 174q0 -39 26.5 -60.5 t67.5 -21.5q38 0 64 22t26 60q0 39 -26 61.5t-64 22.5q-41 0 -67.5 -22.5t-26.5 -61.5z" />
<glyph unicode="0" horiz-adv-x="1392" d="M158 465v502q0 152 73.5 265.5t193.5 170.5t267 57q150 0 271 -57t194.5 -170.5t73.5 -265.5v-502q0 -152 -73.5 -266t-194.5 -171t-271 -57q-147 0 -267 57t-193.5 171t-73.5 266zM319 473q0 -159 108 -253.5t265 -94.5q161 0 269 94.5t108 253.5v488q0 160 -108 253 t-269 93q-102 0 -185.5 -39.5t-135.5 -119.5t-52 -187v-488zM342 473v488q0 153 100.5 240t249.5 87q153 0 252.5 -87t99.5 -240v-488q0 -153 -100 -241.5t-252 -88.5q-148 0 -249 89t-101 241zM506 473q0 -85 52 -130.5t134 -45.5q85 0 139 45.5t54 130.5v488q0 82 -54 127 t-139 45q-81 0 -133.5 -45t-52.5 -127v-488z" />
<glyph unicode="1" horiz-adv-x="876" d="M33 0v311h225v813h-195v310h551v-1123h228v-311h-809zM170 139h535v17h-261v1138h-245v-16h227v-1122h-256v-17z" />
<glyph unicode="2" horiz-adv-x="1122" d="M51 0v55l539 789q29 38 47 85t21 92.5t-27 76t-94 30.5q-65 0 -103.5 -33.5t-38.5 -105.5h-311q-1 113 34.5 202t98.5 145.5t146 87t180 32.5q120 3 217.5 -39.5t155.5 -117.5t83 -168t5 -199t-82 -203l-289 -401h426v-328h-1008zM250 1120h22q33 85 104 126t163 38 q110 -2 182 -48t96 -116t8 -156.5t-73 -168.5l-439 -641h590v20h-555l422 610q60 87 76 179t-10.5 166.5t-104 123.5t-192.5 50q-102 2 -178.5 -44t-110.5 -139z" />
<glyph unicode="3" horiz-adv-x="1167" d="M84 438h322q1 -69 43.5 -105t117.5 -36q73 0 114.5 48.5t43.5 123.5q-1 59 -24 100t-60 59t-84.5 28t-97 8t-97.5 -2v49l191 397h-414v326h912v-54l-265 -483q82 -21 141 -64t91 -102t46.5 -123t14.5 -137q1 -74 -19 -145.5t-62 -136t-101 -113t-142 -77t-180 -28.5 q-145 0 -256 62q-106 60 -170.5 166t-64.5 239zM260 311q34 -85 116 -135.5t187 -50.5q145 1 244 100.5t102 243.5q0 155 -89 250.5t-236 95.5l243 465h-551v-16h519l-238 -463q154 0 242.5 -83.5t91.5 -248.5q-3 -136 -96.5 -230.5t-229.5 -95.5q-99 0 -176 45.5 t-108 122.5h-21z" />
<glyph unicode="4" horiz-adv-x="1179" d="M43 272v160l571 1002h394v-863h122v-299h-122v-272h-340v272h-625zM219 410h606v-273h21v273h153v16h-153v864h-141l-486 -858v-22zM240 426l475 848h110v-848h-585zM475 571h207v215l27 220h-4z" />
<glyph unicode="5" horiz-adv-x="1183" d="M98 438h326q1 -69 43.5 -104t116.5 -35q73 0 114 48t43 124q-3 50 -28.5 86t-70 54t-93.5 28t-112.5 10t-112 -2t-107.5 -6.5t-84 -5.5v799h893v-312h-590v-182q83 8 164.5 2t154.5 -20t135.5 -49.5t108 -86t71.5 -131t26 -184.5q1 -94 -32 -182t-94 -159.5t-159.5 -115 t-218.5 -43.5q-146 0 -256 60q-105 60 -171 166.5t-67 240.5zM272 791q197 8 258 5q244 -13 327 -140q47 -73 48 -185q-2 -137 -95.5 -232t-229.5 -96q-97 -2 -174.5 45t-106.5 125h-20q31 -86 113 -137t188 -49q145 0 244.5 99.5t99.5 244.5q0 60 -13.5 109.5t-35 85 t-57 62t-70 43t-84.5 27t-90 14.5t-96.5 4t-94 -1.5t-92.5 -5.5v461h604v18h-623v-497z" />
<glyph unicode="6" horiz-adv-x="1263" d="M82 471q0 165 76 281l413 694h408l-303 -516q228 17 366 -107.5t138 -351.5q0 -125 -41.5 -221t-116 -155t-172.5 -88.5t-217 -29.5q-120 0 -219 29.5t-174 88.5t-116.5 155t-41.5 221zM258 471q0 -157 106 -249.5t269 -92.5q159 0 265 92.5t106 249.5q0 156 -105.5 246 t-265.5 90q-151 0 -250 -74l-4 2q50 87 164.5 280.5t173.5 297.5h-21l-387 -656q-51 -89 -51 -186zM279 471q0 148 99.5 232.5t254.5 84.5q153 0 251.5 -84.5t98.5 -232.5q0 -151 -98.5 -236t-251.5 -85q-156 0 -255 85t-99 236zM449 471q0 -89 46.5 -135.5t137.5 -46.5 q178 0 178 182q0 180 -178 180q-91 0 -137.5 -46.5t-46.5 -133.5z" />
<glyph unicode="7" horiz-adv-x="1099" d="M43 1106v328h1047v-56l-580 -1378h-377l461 1106h-551zM164 1262h672l-474 -1129h23l481 1147h-702v-18z" />
<glyph unicode="8" horiz-adv-x="1239" d="M69.5 489.5q8.5 92.5 57 180t131.5 147.5q-51 56 -76 126.5t-22.5 141t34.5 138t87.5 119.5t143.5 84t196 32t196 -32t143 -84.5t86.5 -120.5t34 -139t-22 -141.5t-75.5 -125.5q83 -61 130.5 -148.5t55.5 -179.5t-23.5 -184.5t-97 -165t-176.5 -117.5t-251 -45 q-141 0 -253 45.5t-177.5 118t-97.5 165.5t-23.5 185.5zM251 429.5q6 -58.5 33.5 -113.5t71.5 -96.5t113 -67t152 -25.5t151 25.5t112 67.5t71 97t32.5 114t-9.5 117.5t-48 108t-90 86.5t-129 52q71 19 120 65.5t68 103.5t10.5 119t-41.5 113t-97.5 84t-149.5 33 q-84 0 -148.5 -32.5t-98 -83t-42 -112t9 -118.5t64.5 -103.5t116 -66.5v-4q-72 -15 -127.5 -52t-88.5 -86.5t-47 -108t-8 -117zM270 464.5q0 59.5 23 117t65 102.5t110.5 72.5t152.5 27.5t152 -27.5t110 -72.5t64.5 -102.5t22.5 -117t-22.5 -117t-64.5 -102.5t-110 -72.5 t-152 -27.5t-152.5 27.5t-110.5 72.5t-65 102.5t-23 117zM351 1046.5q0 46.5 17.5 90.5t50 78.5t85 55.5t117.5 21q86 0 149 -36.5t91.5 -91t28.5 -118t-28.5 -118t-91.5 -91t-149 -36.5q-65 0 -117.5 21t-85 55.5t-50 78.5t-17.5 90.5zM440.5 425q9.5 -38 30 -69.5t60 -51 t90.5 -19.5t91 19.5t61 51t30.5 69.5t0 76t-30.5 69.5t-61 51t-91 19.5t-90.5 -19.5t-60 -51t-30 -69.5t0 -76zM504.5 1019.5q7.5 -30.5 39 -52t77.5 -21.5q57 0 89 32.5t32 72t-32 72t-89 32.5q-46 0 -77.5 -21.5t-39 -52.5t0 -61.5z" />
<glyph unicode="9" horiz-adv-x="1247" d="M72 963q0 124 40.5 219t114 154t171.5 88.5t218 29.5q119 0 218 -29.5t174.5 -88.5t117 -154t41.5 -219q0 -172 -75 -283l-418 -694h-408l305 518q-227 -17 -363 107.5t-136 351.5zM246 963q0 -157 105 -248.5t265 -91.5q141 0 252 77l2 -2q-57 -96 -170.5 -290.5 t-169.5 -290.5h25l383 659q51 86 51 187q0 156 -105 246.5t-268 90.5q-161 0 -265.5 -90.5t-104.5 -246.5zM262 963q0 148 100.5 233.5t253.5 85.5q154 0 253.5 -85.5t99.5 -233.5q0 -149 -99.5 -234.5t-253.5 -85.5q-153 0 -253.5 85.5t-100.5 234.5zM436 963 q0 -181 180 -181q181 0 181 181q0 178 -181 178q-90 0 -135 -46t-45 -132z" />
<glyph unicode=":" horiz-adv-x="634" d="M104 174q0 85 58.5 138t146.5 53q85 0 143 -53t58 -138q0 -83 -58 -134.5t-143 -51.5q-88 0 -146.5 51.5t-58.5 134.5zM104 838q0 85 58.5 137.5t146.5 52.5q85 0 143 -52.5t58 -137.5q0 -83 -58 -135t-143 -52q-88 0 -146.5 52t-58.5 135zM199 174q0 -46 31.5 -73 t78.5 -27q45 0 77 27.5t32 72.5t-32 71.5t-77 26.5q-48 0 -79 -26t-31 -72zM199 838q0 -46 31.5 -73.5t78.5 -27.5q45 0 77 27.5t32 73.5q0 45 -32 71.5t-77 26.5q-48 0 -79 -26t-31 -72zM215 174q0 -39 26.5 -60.5t67.5 -21.5q38 0 64 22t26 60q0 39 -26 61.5t-64 22.5 q-41 0 -67.5 -22.5t-26.5 -61.5zM215 838q0 -39 26.5 -60.5t67.5 -21.5q38 0 64 22t26 60q0 39 -26 61.5t-64 22.5q-41 0 -67.5 -22.5t-26.5 -61.5z" />
<glyph unicode=";" horiz-adv-x="612" d="M90 172q0 85 58 137.5t143 52.5q88 0 146.5 -52.5t58.5 -137.5q0 -22 -15 -76l-90 -266h-207l52 162q-65 15 -105.5 63t-40.5 117zM90 838q0 85 58.5 137.5t146.5 52.5q85 0 143 -52.5t58 -137.5q0 -83 -58 -135t-143 -52q-88 0 -146.5 52t-58.5 135zM182 172 q0 -46 31.5 -73t77.5 -27q39 0 76 22l-58 -176h17l67 201q8 40 8 53q0 46 -31 72t-79 26q-46 0 -77.5 -26t-31.5 -72zM184 838q0 -46 32 -73.5t79 -27.5q45 0 76.5 27.5t31.5 73.5q0 45 -31.5 71.5t-76.5 26.5q-48 0 -79.5 -26t-31.5 -72zM201 172q0 -38 26 -60t64 -22 q41 0 67.5 21.5t26.5 60.5t-26.5 61.5t-67.5 22.5q-38 0 -64 -22.5t-26 -61.5zM201 838q0 -39 26.5 -60.5t67.5 -21.5q38 0 64 22t26 60q0 39 -26 61.5t-64 22.5q-41 0 -67.5 -22.5t-26.5 -61.5z" />
<glyph unicode="?" horiz-adv-x="1126" d="M98 1020q-2 113 33 202.5t99 145t147 85.5t180 32q109 3 200.5 -30t152.5 -92t94.5 -138.5t33.5 -169.5q0 -71 -22 -134t-55 -106t-71 -89.5t-70 -85.5t-51.5 -92t-16.5 -110h-363q-7 66 4.5 123t36.5 99.5t56.5 80t65 72t62.5 68.5t49 77t23 89q3 53 -40 83.5t-99 30.5 q-59 -2 -99 -37t-40 -104h-310zM266 1149h23q31 85 101 126.5t161 39.5q151 -3 231.5 -76.5t75.5 -185.5q-3 -55 -27.5 -107.5t-61 -97.5t-74.5 -88t-73.5 -95t-52.5 -102h23q16 47 51.5 98t73.5 94t74 89t60.5 100t27.5 109q5 121 -80.5 200t-243.5 80q-105 2 -180.5 -44 t-108.5 -140zM369 197q0 84 57.5 136t142.5 52q87 0 145 -52t58 -136q0 -83 -58.5 -135t-144.5 -52q-85 0 -142.5 52t-57.5 135zM459 197q0 -46 31.5 -73.5t78.5 -27.5q49 0 81 27.5t32 73.5t-32 73t-81 27q-47 0 -78.5 -27t-31.5 -73zM479 197q0 -37 26 -59.5t64 -22.5 q41 0 68 22.5t27 59.5q0 38 -27 61t-68 23q-38 0 -64 -23.5t-26 -60.5z" />
<glyph unicode="@" horiz-adv-x="1765" d="M74 635q0 164 64 314t172 258.5t257.5 172.5t313.5 64t314 -64t258.5 -172.5t172.5 -258.5t64 -314q0 -151 -51 -293.5t-154 -232.5q-94 4 -185 50.5t-158 118t-107 165t-38 186.5q1 49 -34 86t-82 37q-48 0 -84 -36t-35 -85q0 -45 36 -81t83 -36q45 0 86 41 q9 -100 60.5 -192.5t133.5 -163.5q-129 -80 -280 -80q-138 0 -257.5 68.5t-190.5 188t-71 259.5t69.5 259.5t189 189t260.5 69.5t261 -69.5t189.5 -189t69.5 -259.5v-297q-91 39 -143 119t-52 178q0 135 -95 230.5t-230 95.5q-136 0 -232 -95.5t-96 -230.5q0 -138 96 -233 t232 -95q33 0 47 2l-6 21q-14 -2 -41 -2q-127 0 -217.5 89.5t-90.5 217.5q0 126 90 214.5t218 88.5q126 0 215.5 -88.5t89.5 -214.5q0 -109 58.5 -198.5t162.5 -125.5q96 150 96 324q0 126 -49.5 241t-133 198.5t-198.5 133t-241 49.5q-125 0 -240 -49.5t-198.5 -133 t-133 -198.5t-49.5 -241q0 -169 84 -312t227 -226t310 -83q185 0 344 105q119 -66 207 -74q-117 -125 -241 -173t-310 -48q-134 0 -258 41t-223 115.5t-172.5 174.5t-113.5 223.5t-40 256.5z" />
<glyph unicode="A" d="M2 0v53l645 1399h158l647 -1399v-53h-358l-84 180h-566l-84 -180h-358zM209 139h27l96 203h792l95 -203h26l-514 1104h-12zM340 365h776l-389 833h-2zM578 510l147 330l152 -330h-299z" />
<glyph unicode="B" horiz-adv-x="1404" d="M182 0v1434h613q186 0 316 -127.5t130 -313.5q0 -66 -31 -136t-82 -112q172 -87 172 -292q-2 -197 -118.5 -325t-327.5 -128h-672zM354 152h496q115 0 197.5 91.5t82.5 209.5q0 103 -70 183.5t-171 84.5v8q75 18 128.5 99.5t53.5 164.5q0 118 -81.5 202.5t-196.5 84.5 h-439v-1128zM375 172h475q105 0 182.5 85.5t77.5 195.5q0 108 -76.5 182t-183.5 74h-475v-537zM375 727h418q109 0 183.5 78t74.5 188q0 108 -76 188.5t-182 80.5h-418v-535zM537 326v235h290q42 0 71 -24q30 -25 36 -59q3 -18 3 -36q0 -17 -3 -33q-6 -35 -34.5 -59 t-70.5 -24h-292zM537 879v227h229q42 0 70 -24q29 -22 36 -56q4 -17 4 -35q0 -16 -4 -32q-6 -33 -34.5 -56.5t-69.5 -23.5h-231z" />
<glyph unicode="C" horiz-adv-x="1609" d="M96 717q1 142 42.5 263t112 206t164.5 145.5t199.5 89.5t216.5 29q91 0 179 -19.5t171 -62.5t148.5 -105.5t112.5 -154.5t63 -203h-360q-74 211 -314 211q-161 0 -258.5 -110t-97.5 -289q0 -106 43 -196t125.5 -145.5t187.5 -56.5q120 0 205.5 59.5t114.5 172.5h360 q-15 -118 -61.5 -214t-112.5 -160.5t-150 -108t-173 -63t-183 -19.5h-7q-108 0 -210 28q-106 29 -199.5 89t-164 145t-112 206t-42.5 263zM276 717q0 -134 47.5 -245.5t126.5 -181.5q80 -72 178 -110q96 -38 198 -37h5q151 0 275.5 73t187.5 206h-24q-66 -128 -179.5 -193 t-259.5 -65q-80 0 -157 23t-145 69.5t-120 111.5t-82 155t-30 194q0 130 46 237.5t122 176t171 106t195 37.5q141 0 253 -60t178 -178h24q-69 125 -188 190.5t-267 65.5q-84 0 -164 -23.5t-150.5 -72t-124.5 -115.5t-85 -161t-31 -203z" />
<glyph unicode="D" horiz-adv-x="1519" d="M182 0v1434h541q136 -1 251.5 -41t197 -109t139.5 -160.5t85 -194.5t27 -212t-27 -212t-85 -194.5t-139.5 -160.5t-197 -109t-251.5 -41h-541zM360 154h359q170 0 295.5 83.5t181.5 208.5t56 271t-56 271t-181.5 208.5t-295.5 83.5h-359v-1126zM379 176h340q124 0 225 47 t163 123t95.5 173t33.5 198.5t-33.5 198.5t-95.5 173t-163 123t-225 48h-340v-1084zM549 334v766h174q83 0 149.5 -33t108 -87t63.5 -122.5t22 -140.5t-22 -140.5t-63.5 -122.5t-108 -87t-149.5 -33h-174z" />
<glyph unicode="E" horiz-adv-x="1228" d="M182 0v1434h895v-328h-530v-203h487v-325h-487v-252h549v-326h-914zM354 152h602v20h-579v559h520v21h-520v510h561v20h-584v-1130z" />
<glyph unicode="F" horiz-adv-x="1175" d="M182 0v1434h893v-328h-520v-313h461v-328h-461v-465h-373zM356 139h23v477h498v23h-498v623h559v18h-582v-1141z" />
<glyph unicode="G" horiz-adv-x="1617" d="M94 717q1 142 42.5 263.5t112 207t164.5 146t199.5 89.5t216.5 29q89 -1 173 -19.5t164 -58t144 -98t111.5 -143.5t67.5 -189h-361q-44 91 -116 131.5t-183 40.5q-167 0 -261.5 -113.5t-94.5 -285.5q0 -179 97 -286t259 -107q116 0 188 38.5t120 137.5h-306v317h678 q5 -52 5 -108q0 -50 -4 -103q-8 -114 -42 -209q-37 -108 -105 -190t-154.5 -129.5t-181.5 -70.5t-198 -23q-111 0 -216.5 28.5t-199.5 89t-164.5 145.5t-112 206.5t-42.5 263.5zM272 717q0 -135 47.5 -246.5t126.5 -182t178 -108.5q96 -37 200 -37h5q145 0 263.5 64 t188 181.5t69.5 264.5v23h-379v-23h356q-3 -219 -142.5 -354t-355.5 -135q-153 0 -275.5 71.5t-190.5 197.5t-68 284q0 238 151 397q150 158 380 158h3q130 0 243 -56.5t177 -162.5h25q-66 115 -188 176t-257 61q-106 0 -205 -38t-178 -108t-126.5 -181t-47.5 -246z" />
<glyph unicode="H" horiz-adv-x="1560" d="M184 0v1434h375v-521h442v521h375v-1434h-375v575h-442v-575h-375zM358 139h23v592h799v-592h20v1157h-20v-540h-799v540h-23v-1157z" />
<glyph unicode="I" horiz-adv-x="847" d="M63 0v322h183v792h-168v320h698v-320h-168v-792h183v-322h-728zM201 150h450v20h-213v1092h197v20h-416v-20h199v-1092h-217v-20z" />
<glyph unicode="J" horiz-adv-x="1355" d="M94 477v187h346v-181q0 -82 54 -127t137 -45q82 0 130 44t48 128v625h-209v326h584v-957q0 -114 -45 -208.5t-121 -156t-176 -95t-211 -33.5q-149 0 -270 57t-194 170.5t-73 265.5zM252 483q0 -157 106.5 -251.5t266.5 -94.5q107 0 193.5 39t139 119t52.5 188v801h-273 v-20h250v-781q0 -155 -101 -240t-259 -85q-153 0 -253 87t-100 238v41h-22v-41z" />
<glyph unicode="K" horiz-adv-x="1449" d="M184 0v1434h373v-543h27q101 0 170 31t104 70t52.5 119.5t19.5 131t2 153.5v13.5v11.5v13h377v-23q0 -63 -0.5 -95t-2.5 -90t-7 -90.5t-14.5 -83.5t-23 -84t-34.5 -76t-48 -75t-64.5 -66t-82.5 -63l389 -631v-57h-407l-316 555q-49 -8 -141 -8v-547h-373zM356 141h27v568 h205q100 0 196 26l363 -594h24l-368 602q327 112 327 541v10h-20q0 -373 -242 -501q-129 -68 -282 -68h-203v569h-27v-1153z" />
<glyph unicode="L" horiz-adv-x="1138" d="M180 0v1434h369v-1104h520v-330h-889zM354 156h576v18h-553v1120h-23v-1138z" />
<glyph unicode="M" horiz-adv-x="1761" d="M180 0v1438h135l562 -623l571 623h131v-1438h-375v639l-305 -320h-41l-303 320v-639h-375zM358 141h21v924l498 -528l505 528v-924h21v951h-29l-497 -525l-492 525h-27v-951z" />
<glyph unicode="N" horiz-adv-x="1597" d="M182 0v1440h133l725 -709v703h375v-1436h-131l-723 707v-705h-379zM356 141h25v969q140 -135 426 -416q58 -57 416 -405h16v1005h-22v-970q-286 282 -431 417q-201 204 -407 404h-23v-1004z" />
<glyph unicode="O" horiz-adv-x="1658" d="M94 715q0 179 63 324t166.5 234t236 137.5t270 48.5t270 -48.5t236 -137.5t166.5 -234t63 -324q0 -180 -63 -325t-166.5 -234.5t-236 -138t-270 -48.5t-270 48.5t-236 138t-166.5 234.5t-63 325zM274 715q0 -139 48 -252t126 -182t178 -106.5t204 -37.5t204 37.5 t178 106.5t126 182t48 252t-48 251.5t-126 182t-178 107.5q-99 37 -201 37q-1 -1 -3 -1q-104 0 -204 -37.5t-178 -106.5t-126 -181.5t-48 -251.5zM295 715q0 -136 46 -245t121.5 -175.5t171.5 -102.5q95 -35 194 -35q0 1 2 1q100 0 196.5 37t172 104t121.5 175t46 241 t-46 240.5t-121.5 174.5t-171.5 104q-97 36 -197 37h-5q-98 -1 -191 -35q-96 -36 -171.5 -102t-121.5 -175t-46 -244zM471 715q0 93 31 168.5t81.5 122t115 71.5t132 25t132 -25t115 -71.5t81.5 -122t31 -168.5q0 -94 -31 -170t-81.5 -123t-115 -72t-132 -25t-132 25 t-115 72t-81.5 123t-31 170z" />
<glyph unicode="P" horiz-adv-x="1421" d="M182 0v1434h631q111 0 203.5 -37t152.5 -98.5t101 -141.5q42 -81 51 -169q4 -44 4 -88t-4 -88q-9 -88 -50.5 -168.5t-101.5 -142t-152.5 -98t-203.5 -36.5h-264v-367h-367zM352 137h23v383h440q94 1 167.5 43t111.5 109t56 148q9 40 9 80q0 42 -9 82q-18 80 -56 146.5 t-111.5 108t-167.5 41.5h-463v-1141zM375 545v715h440q77 0 139 -30.5t100.5 -81t59.5 -114.5q22 -66 21 -135q1 -66 -19 -128q-20 -64 -59 -114.5t-101.5 -81t-140.5 -30.5h-440zM549 696h262q41 0 74.5 22.5t50.5 58.5q18 35 26 79q5 23 5 47q1 21 -3 41q-8 44 -25 80 t-50.5 59t-77.5 23q-38 1 -82.5 1t-98 -0.5t-81.5 -0.5v-410z" />
<glyph unicode="Q" horiz-adv-x="1667" d="M96 715q0 179 63 324t166.5 234t236 137.5t270 48.5t270 -48.5t236 -137.5t166.5 -234t63 -324q0 -244 -115 -424l147 -244v-47h-372l-35 66q-81 -43 -172 -65.5t-182 -24.5h-13l-171 20q-91 20 -173 59.5t-152.5 103t-122 143.5t-81 186t-29.5 227zM276 715 q0 -142 49.5 -256t129.5 -183t183 -106q96 -34 193 -34h16q105 3 207 43.5t177 115.5l110 -160h29l-125 176q144 157 144 404q0 139 -48 251.5t-126 182t-178 107.5q-99 37 -202 37q-1 0 -3 -1q-104 0 -204 -37.5t-178 -106.5t-126 -181.5t-48 -251.5zM297 715 q0 -109 30 -201.5t81.5 -157.5t120 -110.5t145.5 -66.5q76 -21 156 -21h4q81 1 158.5 23t146 68.5t120 111t81.5 156t30 198.5q0 175 -79.5 304.5t-198.5 189t-258 60.5h-5q-137 0 -254 -57q-119 -58 -198.5 -188t-79.5 -309zM473 715q0 93 31 168.5t81 122t114.5 71.5 t132 25t132 -25t114.5 -71.5t81 -122t31 -168.5q0 -94 -31 -170t-81 -123t-114.5 -72t-132 -25t-132 25t-114.5 72t-81 123t-31 170z" />
<glyph unicode="R" horiz-adv-x="1431" d="M180 0v1434h629q102 0 189 -30t147 -80.5t103 -118.5q42 -69 60 -143q16 -65 16 -134v-20q-2 -80 -26.5 -152.5t-72 -137.5t-113.5 -110l281 -455v-53h-410l-246 422h-190v-422h-367zM350 137h21v438h440q7 0 21 1.5t20 1.5l266 -443h25l-207 338l-62 109q70 11 126 48 t90 88q34 50 50 112q14 51 13 102q-1 11 -1 22q-4 62 -27.5 120.5t-64 103.5t-105.5 72.5t-144 27.5h-461v-1141zM371 598v662h440q77 0 139.5 -28.5t101.5 -75t60 -106t21 -121.5t-20.5 -121.5t-59 -106t-101.5 -75t-141 -28.5h-440zM547 752h262q41 0 73.5 19.5t49.5 50.5 q18 30 26 68q5 20 5 40q1 18 -3 36q-8 38 -25 69t-50 51t-76 20q-38 1 -82 1t-97.5 -0.5t-82.5 -0.5v-354z" />
<glyph unicode="S" horiz-adv-x="1327" d="M82 438h354q0 -52 46 -87t112 -43q35 -5 70 -5q30 -1 62 3q66 8 112.5 41t46.5 81q0 36 -19.5 60t-59.5 37t-80.5 19t-102.5 9q-122 9 -213 35t-162 76.5t-108 132.5t-38 196v8q0 122 57 219q59 100 156 151.5t215 75.5q59 12 117.5 12t117.5 -12q118 -24 215 -75 q98 -52 158 -152q59 -97 58 -219v-8h-348q0 54 -40 89q-38 36 -96 44q-26 3 -53 3l-63 -5q-58 -9 -100 -43.5t-45 -83.5q-2 -32 9 -55.5t29.5 -38.5t51 -25.5t63 -15.5t74.5 -10q59 -6 95 -11t90.5 -14t88 -19.5t78 -28t71.5 -38.5t56.5 -52t46 -68.5t27 -86.5t10.5 -108 q0 -124 -64.5 -222t-166.5 -149q-104 -51 -228 -75q-63 -12 -125 -13q-61 0 -123 12q-124 24 -226 75.5t-165 152.5q-61 98 -61 223v8zM264 993q2 -72 23.5 -124t54 -83t86 -50.5t102.5 -28t121 -13.5q159 -11 216 -25q134 -34 168 -142q14 -44 14 -99q0 -76 -43.5 -136.5 t-111.5 -93.5q-68 -34 -154 -46q-43 -6 -84.5 -6t-82.5 6q-81 12 -153 52t-111 103h-24q35 -71 109 -116.5t160 -60.5q46 -8 96 -8q41 0 83 6q92 12 167 48t123 102t48 150q0 37 -5.5 69t-18 57t-26.5 45.5t-37 35.5t-42 26.5t-50.5 20t-54 14t-59.5 10t-60 6.5t-63 5 q-69 5 -116 12t-98.5 25t-81.5 46.5t-50 77t-20 115.5t29.5 122t79.5 89t112 56q61 21 127 22h3q68 0 131 -15.5t117.5 -52.5t86.5 -90h26q-32 60 -89.5 102t-125.5 59t-142 18h-6q-71 0 -136 -22q-68 -23 -122 -60t-86 -97q-30 -56 -30 -123v-8z" />
<glyph unicode="T" horiz-adv-x="1150" d="M41 1106v328h1065v-328h-350v-1106h-363v1106h-352zM178 1262h387v-1125h21q0 375 -4 1125h385v18h-789v-18z" />
<glyph unicode="U" horiz-adv-x="1478" d="M172 477v957h346v-951q0 -82 66 -128t153 -46t152 46t65 128v951h349v-957q0 -115 -47 -210t-125.5 -157t-180.5 -96t-213 -34t-212 34t-180 96t-126 157t-47 210zM332 483q0 -107 59 -188.5t150 -121.5t196 -40t196 40t150.5 121.5t59.5 188.5v813h-23v-813 q0 -77 -32 -140.5t-86.5 -103.5t-122.5 -61.5t-142 -21.5t-142 21.5t-122.5 61.5t-86.5 103.5t-32 140.5v813h-22v-813z" />
<glyph unicode="V" horiz-adv-x="1437" d="M29 1378v56h352l336 -826h10l328 826h352v-56l-608 -1394h-156zM231 1296l486 -1106h10l477 1106h-24l-457 -1060h-2l-463 1060h-27z" />
<glyph unicode="W" horiz-adv-x="1943" d="M31 1378v56h356l184 -541l64 -244h6l242 762h176l244 -762h6l63 244l182 541h357v-56l-498 -1392h-211l-229 690h-6l-230 -690h-202zM233 1296l400 -1106h14l324 961l323 -961h15l401 1106h-29l-378 -1060h-3l-321 946h-18l-320 -946h-2l-381 1060h-25z" />
<glyph unicode="X" horiz-adv-x="1378" d="M25 0v55l462 705l-413 618v56h381l227 -373h10l230 373h378v-56l-413 -618l465 -705v-55h-396l-262 451h-12l-262 -451h-395zM274 137h29l385 598l387 -598h25l-402 623l349 536h-23l-336 -512l-338 512h-22l350 -536z" />
<glyph unicode="Y" horiz-adv-x="1361" d="M18 1378v56h396l260 -478h14l260 478h398v-56l-484 -776v-602h-362v602zM268 1296l402 -647v-512h22v512l402 647h-27l-385 -622l-387 622h-27z" />
<glyph unicode="Z" horiz-adv-x="1251" d="M47 0v55l580 1051h-527v328h1086v-56l-582 -1050h588v-328h-1145zM223 1260h676l-588 -1106h727v18h-696l588 1108h-707v-20z" />
<glyph unicode="`" horiz-adv-x="714" d="M125 1399v31l311 104l156 -342v-33h-113l-108 207l-23 -4l109 -203h-121z" />
<glyph unicode="a" d="M2 0v53l645 1399h158l647 -1399v-53h-358l-84 180h-566l-84 -180h-358zM209 139h27l96 203h792l95 -203h26l-514 1104h-12zM340 365h776l-389 833h-2zM578 510l147 330l152 -330h-299z" />
<glyph unicode="b" horiz-adv-x="1404" d="M182 0v1434h613q186 0 316 -127.5t130 -313.5q0 -66 -31 -136t-82 -112q172 -87 172 -292q-2 -197 -118.5 -325t-327.5 -128h-672zM354 152h496q115 0 197.5 91.5t82.5 209.5q0 103 -70 183.5t-171 84.5v8q75 18 128.5 99.5t53.5 164.5q0 118 -81.5 202.5t-196.5 84.5 h-439v-1128zM375 172h475q105 0 182.5 85.5t77.5 195.5q0 108 -76.5 182t-183.5 74h-475v-537zM375 727h418q109 0 183.5 78t74.5 188q0 108 -76 188.5t-182 80.5h-418v-535zM537 326v235h290q42 0 71 -24q30 -25 36 -59q3 -18 3 -36q0 -17 -3 -33q-6 -35 -34.5 -59 t-70.5 -24h-292zM537 879v227h229q42 0 70 -24q29 -22 36 -56q4 -17 4 -35q0 -16 -4 -32q-6 -33 -34.5 -56.5t-69.5 -23.5h-231z" />
<glyph unicode="c" horiz-adv-x="1609" d="M96 717q1 142 42.5 263t112 206t164.5 145.5t199.5 89.5t216.5 29q91 0 179 -19.5t171 -62.5t148.5 -105.5t112.5 -154.5t63 -203h-360q-74 211 -314 211q-161 0 -258.5 -110t-97.5 -289q0 -106 43 -196t125.5 -145.5t187.5 -56.5q120 0 205.5 59.5t114.5 172.5h360 q-15 -118 -61.5 -214t-112.5 -160.5t-150 -108t-173 -63t-183 -19.5h-7q-108 0 -210 28q-106 29 -199.5 89t-164 145t-112 206t-42.5 263zM276 717q0 -134 47.5 -245.5t126.5 -181.5q80 -72 178 -110q96 -38 198 -37h5q151 0 275.5 73t187.5 206h-24q-66 -128 -179.5 -193 t-259.5 -65q-80 0 -157 23t-145 69.5t-120 111.5t-82 155t-30 194q0 130 46 237.5t122 176t171 106t195 37.5q141 0 253 -60t178 -178h24q-69 125 -188 190.5t-267 65.5q-84 0 -164 -23.5t-150.5 -72t-124.5 -115.5t-85 -161t-31 -203z" />
<glyph unicode="d" horiz-adv-x="1519" d="M182 0v1434h541q136 -1 251.5 -41t197 -109t139.5 -160.5t85 -194.5t27 -212t-27 -212t-85 -194.5t-139.5 -160.5t-197 -109t-251.5 -41h-541zM360 154h359q170 0 295.5 83.5t181.5 208.5t56 271t-56 271t-181.5 208.5t-295.5 83.5h-359v-1126zM379 176h340q124 0 225 47 t163 123t95.5 173t33.5 198.5t-33.5 198.5t-95.5 173t-163 123t-225 48h-340v-1084zM549 334v766h174q83 0 149.5 -33t108 -87t63.5 -122.5t22 -140.5t-22 -140.5t-63.5 -122.5t-108 -87t-149.5 -33h-174z" />
<glyph unicode="e" horiz-adv-x="1228" d="M182 0v1434h895v-328h-530v-203h487v-325h-487v-252h549v-326h-914zM354 152h602v20h-579v559h520v21h-520v510h561v20h-584v-1130z" />
<glyph unicode="f" horiz-adv-x="1175" d="M182 0v1434h893v-328h-520v-313h461v-328h-461v-465h-373zM356 139h23v477h498v23h-498v623h559v18h-582v-1141z" />
<glyph unicode="g" horiz-adv-x="1617" d="M94 717q1 142 42.5 263.5t112 207t164.5 146t199.5 89.5t216.5 29q89 -1 173 -19.5t164 -58t144 -98t111.5 -143.5t67.5 -189h-361q-44 91 -116 131.5t-183 40.5q-167 0 -261.5 -113.5t-94.5 -285.5q0 -179 97 -286t259 -107q116 0 188 38.5t120 137.5h-306v317h678 q5 -52 5 -108q0 -50 -4 -103q-8 -114 -42 -209q-37 -108 -105 -190t-154.5 -129.5t-181.5 -70.5t-198 -23q-111 0 -216.5 28.5t-199.5 89t-164.5 145.5t-112 206.5t-42.5 263.5zM272 717q0 -135 47.5 -246.5t126.5 -182t178 -108.5q96 -37 200 -37h5q145 0 263.5 64 t188 181.5t69.5 264.5v23h-379v-23h356q-3 -219 -142.5 -354t-355.5 -135q-153 0 -275.5 71.5t-190.5 197.5t-68 284q0 238 151 397q150 158 380 158h3q130 0 243 -56.5t177 -162.5h25q-66 115 -188 176t-257 61q-106 0 -205 -38t-178 -108t-126.5 -181t-47.5 -246z" />
<glyph unicode="h" horiz-adv-x="1560" d="M184 0v1434h375v-521h442v521h375v-1434h-375v575h-442v-575h-375zM358 139h23v592h799v-592h20v1157h-20v-540h-799v540h-23v-1157z" />
<glyph unicode="i" horiz-adv-x="847" d="M63 0v322h183v792h-168v320h698v-320h-168v-792h183v-322h-728zM201 150h450v20h-213v1092h197v20h-416v-20h199v-1092h-217v-20z" />
<glyph unicode="j" horiz-adv-x="1355" d="M94 477v187h346v-181q0 -82 54 -127t137 -45q82 0 130 44t48 128v625h-209v326h584v-957q0 -114 -45 -208.5t-121 -156t-176 -95t-211 -33.5q-149 0 -270 57t-194 170.5t-73 265.5zM252 483q0 -157 106.5 -251.5t266.5 -94.5q107 0 193.5 39t139 119t52.5 188v801h-273 v-20h250v-781q0 -155 -101 -240t-259 -85q-153 0 -253 87t-100 238v41h-22v-41z" />
<glyph unicode="k" horiz-adv-x="1449" d="M184 0v1434h373v-543h27q101 0 170 31t104 70t52.5 119.5t19.5 131t2 153.5v13.5v11.5v13h377v-23q0 -63 -0.5 -95t-2.5 -90t-7 -90.5t-14.5 -83.5t-23 -84t-34.5 -76t-48 -75t-64.5 -66t-82.5 -63l389 -631v-57h-407l-316 555q-49 -8 -141 -8v-547h-373zM356 141h27v568 h205q100 0 196 26l363 -594h24l-368 602q327 112 327 541v10h-20q0 -373 -242 -501q-129 -68 -282 -68h-203v569h-27v-1153z" />
<glyph unicode="l" horiz-adv-x="1138" d="M180 0v1434h369v-1104h520v-330h-889zM354 156h576v18h-553v1120h-23v-1138z" />
<glyph unicode="m" horiz-adv-x="1761" d="M180 0v1438h135l562 -623l571 623h131v-1438h-375v639l-305 -320h-41l-303 320v-639h-375zM358 141h21v924l498 -528l505 528v-924h21v951h-29l-497 -525l-492 525h-27v-951z" />
<glyph unicode="n" horiz-adv-x="1597" d="M182 0v1440h133l725 -709v703h375v-1436h-131l-723 707v-705h-379zM356 141h25v969q140 -135 426 -416q58 -57 416 -405h16v1005h-22v-970q-286 282 -431 417q-201 204 -407 404h-23v-1004z" />
<glyph unicode="o" horiz-adv-x="1658" d="M94 715q0 179 63 324t166.5 234t236 137.5t270 48.5t270 -48.5t236 -137.5t166.5 -234t63 -324q0 -180 -63 -325t-166.5 -234.5t-236 -138t-270 -48.5t-270 48.5t-236 138t-166.5 234.5t-63 325zM274 715q0 -139 48 -252t126 -182t178 -106.5t204 -37.5t204 37.5 t178 106.5t126 182t48 252t-48 251.5t-126 182t-178 107.5q-99 37 -201 37q-1 -1 -3 -1q-104 0 -204 -37.5t-178 -106.5t-126 -181.5t-48 -251.5zM295 715q0 -136 46 -245t121.5 -175.5t171.5 -102.5q95 -35 194 -35q0 1 2 1q100 0 196.5 37t172 104t121.5 175t46 241 t-46 240.5t-121.5 174.5t-171.5 104q-97 36 -197 37h-5q-98 -1 -191 -35q-96 -36 -171.5 -102t-121.5 -175t-46 -244zM471 715q0 93 31 168.5t81.5 122t115 71.5t132 25t132 -25t115 -71.5t81.5 -122t31 -168.5q0 -94 -31 -170t-81.5 -123t-115 -72t-132 -25t-132 25 t-115 72t-81.5 123t-31 170z" />
<glyph unicode="p" horiz-adv-x="1421" d="M182 0v1434h631q111 0 203.5 -37t152.5 -98.5t101.5 -141.5t50.5 -169q5 -44 5 -88t-5 -88q-9 -89 -50.5 -169t-101.5 -141.5t-152.5 -98t-203.5 -36.5h-264v-367h-367zM352 137h23v383h440q94 1 167.5 43t111.5 109t56 148q9 40 9 80.5t-9 81.5q-18 80 -56 146.5 t-111.5 108t-167.5 41.5h-463v-1141zM375 545v715h440q77 0 139 -30.5t100.5 -81t59.5 -114.5q22 -66 22 -135q0 -66 -20 -128q-21 -64 -59.5 -114.5t-101 -81t-140.5 -30.5h-440zM549 696h262q41 0 74.5 22.5t51 58.5t25.5 79q5 24 5 47q0 20 -3 41q-8 44 -25 80t-50.5 59 t-77.5 23q-38 1 -82.5 1t-98 -0.5t-81.5 -0.5v-410z" />
<glyph unicode="q" horiz-adv-x="1667" d="M96 715q0 179 63 324t166.5 234t236 137.5t270 48.5t270 -48.5t236 -137.5t166.5 -234t63 -324q0 -244 -115 -424l147 -244v-47h-372l-35 66q-81 -43 -172 -65.5t-182 -24.5h-13l-171 20q-91 20 -173 59.5t-152.5 103t-122 143.5t-81 186t-29.5 227zM276 715 q0 -142 49.5 -256t129.5 -183t183 -106q96 -34 193 -34h16q105 3 207 43.5t177 115.5l110 -160h29l-125 176q144 157 144 404q0 139 -48 251.5t-126 182t-178 107.5q-99 37 -202 37q-1 0 -3 -1q-104 0 -204 -37.5t-178 -106.5t-126 -181.5t-48 -251.5zM297 715 q0 -109 30 -201.5t81.5 -157.5t120 -110.5t145.5 -66.5q76 -21 156 -21h4q81 1 158.5 23t146 68.5t120 111t81.5 156t30 198.5q0 175 -79.5 304.5t-198.5 189t-258 60.5h-5q-137 0 -254 -57q-119 -58 -198.5 -188t-79.5 -309zM473 715q0 93 31 168.5t81 122t114.5 71.5 t132 25t132 -25t114.5 -71.5t81 -122t31 -168.5q0 -94 -31 -170t-81 -123t-114.5 -72t-132 -25t-132 25t-114.5 72t-81 123t-31 170z" />
<glyph unicode="r" horiz-adv-x="1431" d="M180 0v1434h629q102 0 189 -30t147 -80.5t103 -118.5q42 -69 60 -143q16 -65 16 -134v-20q-2 -80 -26.5 -152.5t-72 -137.5t-113.5 -110l281 -455v-53h-410l-246 422h-190v-422h-367zM350 137h21v438h440q7 0 21 1.5t20 1.5l266 -443h25l-207 338l-62 109q70 11 126 48 t90 88q34 50 50 112q14 51 13 102q-1 11 -1 22q-4 62 -27.5 120.5t-64 103.5t-105.5 72.5t-144 27.5h-461v-1141zM371 598v662h440q77 0 139.5 -28.5t101.5 -75t60 -106t21 -121.5t-20.5 -121.5t-59 -106t-101.5 -75t-141 -28.5h-440zM547 752h262q41 0 73.5 19.5t49.5 50.5 q18 30 26 68q5 20 5 40q1 18 -3 36q-8 38 -25 69t-50 51t-76 20q-38 1 -82 1t-97.5 -0.5t-82.5 -0.5v-354z" />
<glyph unicode="s" horiz-adv-x="1327" d="M82 438h354q0 -52 46 -87t112 -43q35 -5 70 -5q30 -1 62 3q66 8 112.5 41t46.5 81q0 36 -19.5 60t-59.5 37t-80.5 19t-102.5 9q-122 9 -213 35t-162 76.5t-108 132.5t-38 196v8q0 122 57 219q59 100 156 151.5t215 75.5q59 12 117.5 12t117.5 -12q118 -24 215 -75 q98 -52 158 -152q59 -97 58 -219v-8h-348q0 54 -40 89q-38 36 -96 44q-26 3 -53 3l-63 -5q-58 -9 -100 -43.5t-45 -83.5q-2 -32 9 -55.5t29.5 -38.5t51 -25.5t63 -15.5t74.5 -10q59 -6 95 -11t90.5 -14t88 -19.5t78 -28t71.5 -38.5t56.5 -52t46 -68.5t27 -86.5t10.5 -108 q0 -124 -64.5 -222t-166.5 -149q-104 -51 -228 -75q-63 -12 -125 -13q-61 0 -123 12q-124 24 -226 75.5t-165 152.5q-61 98 -61 223v8zM264 993q2 -72 23.5 -124t54 -83t86 -50.5t102.5 -28t121 -13.5q159 -11 216 -25q134 -34 168 -142q14 -44 14 -99q0 -76 -43.5 -136.5 t-111.5 -93.5q-68 -34 -154 -46q-43 -6 -84.5 -6t-82.5 6q-81 12 -153 52t-111 103h-24q35 -71 109 -116.5t160 -60.5q46 -8 96 -8q41 0 83 6q92 12 167 48t123 102t48 150q0 37 -5.5 69t-18 57t-26.5 45.5t-37 35.5t-42 26.5t-50.5 20t-54 14t-59.5 10t-60 6.5t-63 5 q-69 5 -116 12t-98.5 25t-81.5 46.5t-50 77t-20 115.5t29.5 122t79.5 89t112 56q61 21 127 22h3q68 0 131 -15.5t117.5 -52.5t86.5 -90h26q-32 60 -89.5 102t-125.5 59t-142 18h-6q-71 0 -136 -22q-68 -23 -122 -60t-86 -97q-30 -56 -30 -123v-8z" />
<glyph unicode="t" horiz-adv-x="1150" d="M41 1106v328h1065v-328h-350v-1106h-363v1106h-352zM178 1262h387v-1125h21q0 375 -4 1125h385v18h-789v-18z" />
<glyph unicode="u" horiz-adv-x="1478" d="M172 477v957h346v-951q0 -82 66 -128t153 -46t152 46t65 128v951h349v-957q0 -115 -47 -210t-125.5 -157t-180.5 -96t-213 -34t-212 34t-180 96t-126 157t-47 210zM332 483q0 -107 59 -188.5t150 -121.5t196 -40t196 40t150.5 121.5t59.5 188.5v813h-23v-813 q0 -77 -32 -140.5t-86.5 -103.5t-122.5 -61.5t-142 -21.5t-142 21.5t-122.5 61.5t-86.5 103.5t-32 140.5v813h-22v-813z" />
<glyph unicode="v" horiz-adv-x="1437" d="M29 1378v56h352l336 -826h10l328 826h352v-56l-608 -1394h-156zM231 1296l486 -1106h10l477 1106h-24l-457 -1060h-2l-463 1060h-27z" />
<glyph unicode="w" horiz-adv-x="1943" d="M31 1378v56h356l184 -541l64 -244h6l242 762h176l244 -762h6l63 244l182 541h357v-56l-498 -1392h-211l-229 690h-6l-230 -690h-202zM233 1296l400 -1106h14l324 961l323 -961h15l401 1106h-29l-378 -1060h-3l-321 946h-18l-320 -946h-2l-381 1060h-25z" />
<glyph unicode="x" horiz-adv-x="1378" d="M25 0v55l462 705l-413 618v56h381l227 -373h10l230 373h378v-56l-413 -618l465 -705v-55h-396l-262 451h-12l-262 -451h-395zM274 137h29l385 598l387 -598h25l-402 623l349 536h-23l-336 -512l-338 512h-22l350 -536z" />
<glyph unicode="y" horiz-adv-x="1361" d="M18 1378v56h396l260 -478h14l260 478h398v-56l-484 -776v-602h-362v602zM268 1296l402 -647v-512h22v512l402 647h-27l-385 -622l-387 622h-27z" />
<glyph unicode="z" horiz-adv-x="1251" d="M47 0v55l580 1051h-527v328h1086v-56l-582 -1050h588v-328h-1145zM223 1260h676l-588 -1106h727v18h-696l588 1108h-707v-20z" />
<glyph unicode="&#xa1;" horiz-adv-x="722" d="M158 -403l22 1026h357l30 -1026h-409zM158 864q0 83 57 135t143 52t143.5 -52t57.5 -135q0 -85 -57 -136.5t-144 -51.5q-86 0 -143 51.5t-57 136.5zM248 864q0 -46 31.5 -73t78.5 -27t79 27t32 73t-32 73.5t-79 27.5t-78.5 -27.5t-31.5 -73.5zM266 864q0 -37 26.5 -60.5 t65.5 -23.5q38 0 65.5 23.5t27.5 60.5t-27.5 59.5t-65.5 22.5q-39 0 -65.5 -22.5t-26.5 -59.5zM350 -262h19v743h-19v-743z" />
<glyph unicode="&#xa8;" horiz-adv-x="1232" d="M133 1348q0 86 58 137t145 51t146 -51.5t59 -136.5q0 -83 -59 -135t-146 -52q-86 0 -144.5 52t-58.5 135zM225 1348q0 -46 31.5 -72.5t79.5 -26.5q49 0 81 26.5t32 72.5t-32.5 74t-80.5 28q-47 0 -79 -28t-32 -74zM244 1348q0 -37 26.5 -58.5t65.5 -21.5q41 0 67.5 21.5 t26.5 58.5q0 40 -26.5 62t-67.5 22q-39 0 -65.5 -22t-26.5 -62zM676 1348q0 86 58 137t145 51q88 0 145 -51t57 -137q0 -84 -57 -135.5t-145 -51.5q-86 0 -144.5 52t-58.5 135zM766 1348q0 -45 33 -72t80 -27t78.5 26.5t31.5 72.5t-31.5 74t-78.5 28q-48 0 -80.5 -28 t-32.5 -74zM786 1348q0 -37 26.5 -58.5t66.5 -21.5t67 21.5t27 58.5q0 40 -27 62t-67 22t-66.5 -22t-26.5 -62z" />
<glyph unicode="&#xb4;" horiz-adv-x="688" d="M119 1159v33l155 342l312 -104v-31l-211 -240h-121l108 203l-22 4l-109 -207h-112z" />
<glyph unicode="&#xb8;" horiz-adv-x="710" d="M119 -449l16 191q22 -18 59.5 -25t70 3t40.5 36q11 38 -21.5 55t-76.5 17l53 203l100 -2l-30 -174q66 -16 99 -57t13 -103q-15 -43 -50.5 -66t-76.5 -23.5t-84 7.5l-4 -19q50 -11 96 -9.5t85 28.5t55 76q21 65 -11.5 113.5t-97.5 68.5l27 156l108 -4l-30 -136 q63 -10 100 -49t40.5 -90t-15.5 -106q-27 -65 -83.5 -103t-123 -45t-135.5 8t-123 49z" />
<glyph unicode="&#xbf;" horiz-adv-x="1112" d="M78 20q0 61 16.5 116t43 96.5t58 80t62.5 74.5t56 72.5t39.5 82t11.5 95.5h362q7 -66 -4.5 -123t-36.5 -99t-56.5 -80t-65 -72.5t-62.5 -68.5t-49 -76.5t-23 -88.5q-3 -53 40 -84t99 -31q59 2 99.5 37t40.5 104h309q2 -113 -33 -202.5t-99 -145t-147 -85.5t-180 -32 q-109 -3 -200.5 30t-152.5 92t-94.5 138.5t-33.5 169.5zM238 23q-5 -122 80 -201t243 -80q105 -2 180.5 44t108.5 140h-23q-31 -85 -101 -126.5t-161 -39.5q-151 3 -231.5 77t-75.5 186q3 55 27.5 107.5t61 97t74.5 87.5t73.5 95t52.5 102h-23q-16 -47 -51.5 -97.5t-73 -94 t-73.5 -89.5t-60.5 -99.5t-27.5 -108.5zM344 879q0 83 58 134.5t145 51.5q85 0 143 -51.5t58 -134.5q0 -84 -58 -136.5t-143 -52.5q-87 0 -145 52t-58 137zM434 879q0 -46 32 -73.5t81 -27.5q47 0 78.5 27.5t31.5 73.5t-31.5 73t-78.5 27q-49 0 -81 -27t-32 -73zM453 879 q0 -38 27 -61t67 -23q38 0 64 23.5t26 60.5t-26 59.5t-64 22.5q-41 0 -67.5 -22.5t-26.5 -59.5z" />
<glyph unicode="&#xc0;" d="M2 0v53l645 1399h158l647 -1399v-53h-358l-84 180h-566l-84 -180h-358zM209 139h27l96 203h792l95 -203h26l-514 1104h-12zM340 365h776l-389 833h-2zM408 1782v30l311 105l155 -342v-33h-112l-109 207l-22 -4l108 -203h-121zM578 510l147 330l152 -330h-299z" />
<glyph unicode="&#xc1;" d="M2 0v53l645 1399h158l647 -1399v-53h-358l-84 180h-566l-84 -180h-358zM209 139h27l96 203h792l95 -203h26l-514 1104h-12zM340 365l385 833h2l389 -833h-776zM571 1538v33l156 342l311 -105v-30l-211 -240h-120l108 203l-22 4l-109 -207h-113zM578 510h299l-152 330z " />
<glyph unicode="&#xc2;" d="M2 0v53l645 1399h158l647 -1399v-53h-358l-84 180h-566l-84 -180h-358zM209 139h27l96 203h792l95 -203h26l-514 1104h-12zM319 1528v33l218 292h372l219 -292v-33h-114l-176 217h-23l176 -217h-135l-133 155l-125 -155h-141l176 217h-21l-178 -217h-115zM340 365h776 l-389 833h-2zM578 510l147 330l152 -330h-299z" />
<glyph unicode="&#xc3;" d="M2 0v53l645 1399h158l647 -1399v-53h-358l-84 180h-566l-84 -180h-358zM209 139h27l96 203h792l95 -203h26l-514 1104h-12zM293 1628q55 165 163.5 223.5t264.5 -2.5q3 -1 19.5 -8t22.5 -9l22.5 -7.5t24 -7t22.5 -3.5t23 0l20 5t19 10.5t14 18.5t12 26q18 -8 83.5 -35.5 t100.5 -44.5q-33 -151 -146 -219.5t-251 -13.5q-6 3 -29.5 13t-37.5 15.5t-38 13.5t-41 8t-36 -3.5t-33 -17.5t-23 -36q-96 38 -176 74zM340 365h776l-389 833h-2zM422 1686l14 -7q88 98 258 23q193 -79 281 35l-17 8q-83 -100 -258 -23q-184 80 -278 -36zM578 510l147 330 l152 -330h-299z" />
<glyph unicode="&#xc4;" d="M2 0v53l645 1399h158l647 -1399v-53h-358l-84 180h-566l-84 -180h-358zM209 139h27l96 203h792l95 -203h26l-514 1104h-12zM254 1700q0 86 58 137t145 51t146 -51.5t59 -136.5q0 -83 -59 -135t-146 -52q-86 0 -144.5 52t-58.5 135zM340 365h776l-389 833h-2zM346 1700 q0 -46 31.5 -72t79.5 -26q49 0 80.5 26t31.5 72t-32 74t-80 28q-47 0 -79 -28t-32 -74zM365 1700q0 -37 26.5 -58.5t65.5 -21.5q41 0 67.5 21.5t26.5 58.5q0 40 -26.5 62t-67.5 22q-39 0 -65.5 -22t-26.5 -62zM578 510l147 330l152 -330h-299zM797 1700q0 86 57.5 137 t144.5 51q88 0 145.5 -51t57.5 -137q0 -84 -57.5 -135.5t-145.5 -51.5q-86 0 -144 52t-58 135zM887 1700q0 -45 32.5 -71.5t79.5 -26.5q48 0 79.5 26t31.5 72t-32 74t-79 28q-48 0 -80 -28t-32 -74zM907 1700q0 -37 26 -58.5t66 -21.5t67.5 21.5t27.5 58.5q0 40 -27.5 62 t-67.5 22t-66 -22t-26 -62z" />
<glyph unicode="&#xc5;" d="M2 0v53l612 1329q-74 29 -117.5 89.5t-43.5 144.5q0 112 78.5 180t195.5 68q115 0 192.5 -68t77.5 -180q0 -84 -44 -144.5t-117 -89.5l616 -1329v-53h-358l-84 180h-566l-84 -180h-358zM209 139h27l96 203h792l95 -203h26l-514 1104h-12zM340 365h776l-389 833h-2z M578 510l147 330l152 -330h-299zM578 1616q0 -63 42 -99t107 -36q63 0 105 36.5t42 98.5q0 61 -42.5 97t-104.5 36q-65 0 -107 -36t-42 -97zM602 1616q0 -52 35 -81.5t90 -29.5q52 0 87.5 29.5t35.5 81.5q0 51 -35.5 80.5t-87.5 29.5q-54 0 -89.5 -29.5t-35.5 -80.5z" />
<glyph unicode="&#xc6;" horiz-adv-x="1773" d="M2 0v55l641 1379h979v-326h-467v-207h426v-326h-426v-249h485v-326h-827v313h-313q-107 -246 -138 -313h-360zM217 139h19q97 199 163 340h576v-325h526v20h-508v557h449v21h-449v508h490v22h-727zM410 498q118 258 358 762h207v-762h-565zM641 645h172l6 424h-2z" />
<glyph unicode="&#xc7;" horiz-adv-x="1609" d="M96 717q1 142 42.5 263t112 206t164.5 145.5t199.5 89.5t216.5 29q91 0 179 -19.5t171 -62.5t148.5 -105.5t112.5 -154.5t63 -203h-360q-74 211 -314 211q-161 0 -258.5 -110t-97.5 -289q0 -106 43 -196t125.5 -145.5t187.5 -56.5q120 0 205.5 59.5t114.5 172.5h360 q-14 -105 -51.5 -193t-90.5 -150t-122 -108t-143.5 -72t-157.5 -36l-20 -92q63 -10 100.5 -49.5t40.5 -90t-16 -106.5q-27 -65 -83.5 -103t-123 -44.5t-135.5 8.5t-123 49l16 190q22 -18 59.5 -25t70 3.5t40.5 36.5q11 38 -21.5 54.5t-76.5 16.5l39 154q-98 13 -187.5 49 t-168 98t-136 144t-91 193t-34.5 239zM276 717q0 -134 47.5 -245.5t126.5 -182t177.5 -109t203.5 -37.5h15l-49 -276q66 -16 99 -57t13 -103q-15 -43 -50.5 -66t-76.5 -23.5t-84 7.5l-4 -18q50 -11 96 -10t85 28t55 76q21 64 -12 112t-99 68l45 262q142 5 254.5 77 t175.5 202h-24q-66 -128 -179.5 -193t-259.5 -65q-80 0 -157 23t-145 69.5t-120 111.5t-82 155t-30 194q0 130 46 237.5t122 176t171 106t195 37.5q141 0 253 -60t178 -178h24q-69 125 -188 190.5t-267 65.5q-84 0 -164 -23.5t-150.5 -72t-124.5 -115.5t-85 -161t-31 -203z " />
<glyph unicode="&#xc8;" horiz-adv-x="1228" d="M182 0v1434h895v-328h-530v-203h487v-325h-487v-252h549v-326h-914zM340 1782v30l311 105l156 -342v-33h-113l-108 207l-23 -4l109 -203h-121zM354 152h602v20h-579v559h520v21h-520v510h561v20h-584v-1130z" />
<glyph unicode="&#xc9;" horiz-adv-x="1228" d="M182 0v1434h895v-328h-530v-203h487v-325h-487v-252h549v-326h-914zM354 152h602v20h-579v559h520v21h-520v510h561v20h-584v-1130zM483 1538v33l156 342l311 -105v-30l-211 -240h-121l109 203l-22 4l-109 -207h-113z" />
<glyph unicode="&#xca;" horiz-adv-x="1228" d="M182 0v1434h895v-328h-530v-203h487v-325h-487v-252h549v-326h-914zM223 1536v33l217 293h373l219 -293v-33h-114l-177 217h-22l176 -217h-135l-133 156l-125 -156h-142l177 217h-21l-178 -217h-115zM354 152h602v20h-579v559h520v21h-520v510h561v20h-584v-1130z" />
<glyph unicode="&#xcb;" horiz-adv-x="1228" d="M182 0v1434h895v-328h-530v-203h487v-325h-487v-252h549v-326h-914zM182 1706q0 83 57 133.5t142 50.5q84 0 141.5 -50.5t57.5 -133.5q0 -80 -57.5 -130t-141.5 -50q-85 0 -142 50t-57 130zM272 1706q0 -44 31.5 -70t77.5 -26q47 0 77.5 25.5t30.5 70.5t-30.5 72.5 t-77.5 27.5q-46 0 -77.5 -27.5t-31.5 -72.5zM291 1706q0 -36 26 -57t64 -21q39 0 65.5 21t26.5 57q0 38 -26 60t-66 22q-38 0 -64 -22t-26 -60zM354 152h602v20h-579v559h520v21h-520v510h561v20h-584v-1130zM711 1706q0 83 56.5 133.5t141.5 50.5t141 -50.5t56 -133.5 q0 -80 -56 -130t-141 -50t-141.5 50t-56.5 130zM799 1706q0 -44 32.5 -70t77.5 -26q46 0 76.5 26t30.5 70q0 45 -31 72.5t-76 27.5q-47 0 -78.5 -27.5t-31.5 -72.5zM819 1706q0 -36 26 -57t64 -21t65 21.5t27 56.5q0 38 -26.5 60t-65.5 22q-38 0 -64 -22t-26 -60z" />
<glyph unicode="&#xcc;" horiz-adv-x="847" d="M63 0v322h183v792h-168v320h698v-320h-168v-792h183v-322h-728zM104 1778v30l312 105l155 -342v-33h-112l-109 207l-22 -4l108 -203h-121zM201 150h450v20h-213v1092h197v20h-416v-20h199v-1092h-217v-20z" />
<glyph unicode="&#xcd;" horiz-adv-x="847" d="M63 0v322h183v792h-168v320h698v-320h-168v-792h183v-322h-728zM201 150h450v20h-213v1092h197v20h-416v-20h199v-1092h-217v-20zM279 1534v33l155 342l311 -105v-30l-210 -240h-121l108 203l-22 4l-109 -207h-112z" />
<glyph unicode="&#xce;" horiz-adv-x="847" d="M20 1538v33l218 293h372l219 -293v-33h-114l-176 217h-23l176 -217h-135l-133 156l-125 -156h-141l176 217h-21l-178 -217h-115zM63 0v322h183v792h-168v320h698v-320h-168v-792h183v-322h-728zM201 150h450v20h-213v1092h197v20h-416v-20h199v-1092h-217v-20z" />
<glyph unicode="&#xcf;" horiz-adv-x="847" d="M-45 1722q0 86 58 137.5t145 51.5t145.5 -51.5t58.5 -137.5q0 -83 -58.5 -134.5t-145.5 -51.5t-145 51.5t-58 134.5zM47 1722q0 -46 31.5 -72t79.5 -26q49 0 80.5 26t31.5 72t-32 74.5t-80 28.5q-47 0 -79 -28.5t-32 -74.5zM63 0v322h183v792h-168v320h698v-320h-168 v-792h183v-322h-728zM66 1722q0 -37 26.5 -58.5t65.5 -21.5q41 0 67.5 21.5t26.5 58.5q0 40 -26.5 62t-67.5 22q-39 0 -65.5 -22t-26.5 -62zM201 150h450v20h-213v1092h197v20h-416v-20h199v-1092h-217v-20zM498 1722q0 86 57.5 137.5t144.5 51.5q88 0 145.5 -51.5 t57.5 -137.5q0 -83 -57.5 -134.5t-145.5 -51.5q-86 0 -144 51.5t-58 134.5zM588 1722q0 -45 32.5 -71.5t79.5 -26.5q48 0 79.5 26t31.5 72t-32 74.5t-79 28.5q-48 0 -80 -28.5t-32 -74.5zM608 1722q0 -37 26 -58.5t66 -21.5t67.5 21.5t27.5 58.5q0 40 -27.5 62t-67.5 22 t-66 -22t-26 -62z" />
<glyph unicode="&#xd0;" horiz-adv-x="1519" d="M10 553v321h172v560h541q136 -1 251.5 -41t197 -109t139.5 -160.5t85 -194.5t27 -212t-27 -212t-85 -194.5t-139.5 -160.5t-197 -109t-251.5 -41h-541v553h-172zM147 705h213v-551h359q170 0 295.5 83.5t181.5 208.5t56 271t-56 271t-181.5 208.5t-295.5 83.5h-359v-557 h-213v-18zM379 176v529h219v18h-219v537h340q124 -1 225 -48t163 -123t95.5 -173t33.5 -198.5t-33.5 -198.5t-95.5 -173t-163 -123t-225 -47h-340zM549 334h174q83 0 149.5 33t108 87t63.5 122.5t22 140.5t-22 140.5t-63.5 122.5t-108 87t-149.5 33h-174v-226h188v-321h-188 v-219z" />
<glyph unicode="&#xd1;" horiz-adv-x="1597" d="M182 0v1440h133l725 -709v703h375v-1436h-131l-723 707v-705h-379zM356 141h25v969q140 -135 426 -416q58 -57 416 -405h16v1005h-22v-970q-286 282 -431 417q-201 204 -407 404h-23v-1004zM362 1628q55 165 164 223.5t265 -2.5q1 -1 21.5 -9t26 -10t24.5 -8.5t27 -6.5 t24 -1.5t24.5 3t19.5 10.5t18.5 18t12.5 29q20 -9 85 -36t100 -44q-33 -151 -146.5 -219.5t-251.5 -13.5q-7 3 -29.5 13t-37 15.5t-38 13.5t-40.5 8t-36 -3.5t-33 -17.5t-23 -36q-103 40 -177 74zM492 1686l14 -7q88 98 258 23q193 -79 280 35l-16 8q-83 -100 -258 -23 q-184 80 -278 -36z" />
<glyph unicode="&#xd2;" horiz-adv-x="1658" d="M94 715q0 179 63 324t166.5 234t236 137.5t270 48.5t270 -48.5t236 -137.5t166.5 -234t63 -324q0 -180 -63 -325t-166.5 -234.5t-236 -138t-270 -48.5t-270 48.5t-236 138t-166.5 234.5t-63 325zM274 715q0 -139 48 -252t126 -182t178 -106.5t204 -37.5t204 37.5 t178 106.5t126 182t48 252t-48 251.5t-126 182t-178 107t-204 37t-204 -38t-178 -106.5t-126 -181.5t-48 -251.5zM295 715q0 -136 46 -245t121.5 -175.5t171.5 -102t196.5 -35t196.5 37.5t171.5 104t121.5 175t46 241t-46 240.5t-121.5 174.5t-171.5 103.5t-196.5 37.5 t-196.5 -34.5t-171.5 -102t-121.5 -175.5t-46 -244zM471 715q0 93 31 168.5t81.5 122t115 71.5t132 25t132 -25t115 -71.5t81.5 -122t31 -168.5q0 -94 -31 -170t-81.5 -123t-115 -72t-132 -25t-132 25t-115 72t-81.5 123t-31 170zM508 1796v31l311 104l156 -342v-33h-113 l-108 207l-23 -4l109 -203h-121z" />
<glyph unicode="&#xd3;" horiz-adv-x="1658" d="M94 715q0 179 63 324t166.5 234t236 137.5t270 48.5t270 -48.5t236 -137.5t166.5 -234t63 -324q0 -180 -63 -325t-166.5 -234.5t-236 -138t-270 -48.5t-270 48.5t-236 138t-166.5 234.5t-63 325zM274 715q0 -139 48 -252t126 -182t178 -106.5t204 -37.5t204 37.5 t178 106.5t126 182t48 252t-48 251.5t-126 182t-178 107t-204 37t-204 -38t-178 -106.5t-126 -181.5t-48 -251.5zM295 715q0 135 46 244t121.5 175.5t171.5 102t196.5 34.5t196.5 -37.5t171.5 -103.5t121.5 -174.5t46 -240.5t-46 -241t-121.5 -175t-171.5 -104t-196.5 -37.5 t-196.5 35t-171.5 102t-121.5 175.5t-46 245zM471 715q0 -94 31 -170t81.5 -123t115 -72t132 -25t132 25t115 72t81.5 123t31 170q0 93 -31 168.5t-81.5 122t-115 71.5t-132 25t-132 -25t-115 -71.5t-81.5 -122t-31 -168.5zM653 1569v33l156 342l311 -105v-31l-211 -239 h-121l109 203l-23 4l-108 -207h-113z" />
<glyph unicode="&#xd4;" horiz-adv-x="1658" d="M94 715q0 179 63 324t166.5 234t236 137.5t270 48.5t270 -48.5t236 -137.5t166.5 -234t63 -324q0 -180 -63 -325t-166.5 -234.5t-236 -138t-270 -48.5t-270 48.5t-236 138t-166.5 234.5t-63 325zM274 715q0 -139 48 -252t126 -182t178 -106.5t204 -37.5t204 37.5 t178 106.5t126 182t48 252t-48 251.5t-126 182t-178 107t-204 37t-204 -38t-178 -106.5t-126 -181.5t-48 -251.5zM295 715q0 -136 46 -245t121.5 -175.5t171.5 -102t196.5 -35t196.5 37.5t171.5 104t121.5 175t46 241t-46 240.5t-121.5 174.5t-171.5 103.5t-196.5 37.5 t-196.5 -34.5t-171.5 -102t-121.5 -175.5t-46 -244zM424 1563v32l217 293h373l219 -293v-32h-115l-176 217h-22l176 -217h-135l-134 155l-125 -155h-141l176 217h-20l-178 -217h-115zM471 715q0 93 31 168.5t81.5 122t115 71.5t132 25t132 -25t115 -71.5t81.5 -122 t31 -168.5q0 -94 -31 -170t-81.5 -123t-115 -72t-132 -25t-132 25t-115 72t-81.5 123t-31 170z" />
<glyph unicode="&#xd5;" horiz-adv-x="1658" d="M94 715q0 179 63 324t166.5 234t236 137.5t270 48.5t270 -48.5t236 -137.5t166.5 -234t63 -324q0 -180 -63 -325t-166.5 -234.5t-236 -138t-270 -48.5t-270 48.5t-236 138t-166.5 234.5t-63 325zM274 715q0 -139 48 -252t126 -182t178 -106.5t204 -37.5t204 37.5 t178 106.5t126 182t48 252t-48 251.5t-126 182t-178 107t-204 37t-204 -38t-178 -106.5t-126 -181.5t-48 -251.5zM295 715q0 -136 46 -245t121.5 -175.5t171.5 -102t196.5 -35t196.5 37.5t171.5 104t121.5 175t46 241t-46 240.5t-121.5 174.5t-171.5 103.5t-196.5 37.5 t-196.5 -34.5t-171.5 -102t-121.5 -175.5t-46 -244zM410 1653q55 165 163.5 223.5t264.5 -2.5q3 -1 22 -9t25.5 -10t24.5 -8.5t27 -7t24 -2t24 3t20 10.5t18.5 18t12.5 29q23 -10 87 -36.5t98 -42.5q-33 -151 -146.5 -220t-251.5 -14q-7 3 -29.5 13t-37 16t-38 13.5t-41 7.5 t-36 -3t-32.5 -17t-23 -36q-97 38 -176 74zM471 715q0 93 31 168.5t81.5 122t115 71.5t132 25t132 -25t115 -71.5t81.5 -122t31 -168.5q0 -94 -31 -170t-81.5 -123t-115 -72t-132 -25t-132 25t-115 72t-81.5 123t-31 170zM539 1710l14 -6q87 97 258 22q193 -79 281 35l-17 8 q-82 -100 -258 -22q-184 79 -278 -37z" />
<glyph unicode="&#xd6;" horiz-adv-x="1658" d="M94 715q0 179 63 324t166.5 234t236 137.5t270 48.5t270 -48.5t236 -137.5t166.5 -234t63 -324q0 -180 -63 -325t-166.5 -234.5t-236 -138t-270 -48.5t-270 48.5t-236 138t-166.5 234.5t-63 325zM274 715q0 -139 48 -252t126 -182t178 -106.5t204 -37.5t204 37.5 t178 106.5t126 182t48 252t-48 251.5t-126 182t-178 107t-204 37t-204 -38t-178 -106.5t-126 -181.5t-48 -251.5zM295 715q0 -136 46 -245t121.5 -175.5t171.5 -102t196.5 -35t196.5 37.5t171.5 104t121.5 175t46 241t-46 240.5t-121.5 174.5t-171.5 103.5t-196.5 37.5 t-196.5 -34.5t-171.5 -102t-121.5 -175.5t-46 -244zM354 1722q0 86 58 137.5t145 51.5t146 -51.5t59 -137.5q0 -83 -59 -134.5t-146 -51.5t-145 51.5t-58 134.5zM446 1722q0 -46 31.5 -72t79.5 -26q49 0 81 26t32 72t-32.5 74.5t-80.5 28.5q-47 0 -79 -28.5t-32 -74.5z M465 1722q0 -37 26.5 -58.5t65.5 -21.5q41 0 67.5 21.5t26.5 58.5q0 40 -26.5 62t-67.5 22q-39 0 -65.5 -22t-26.5 -62zM471 715q0 93 31 168.5t81.5 122t115 71.5t132 25t132 -25t115 -71.5t81.5 -122t31 -168.5q0 -94 -31 -170t-81.5 -123t-115 -72t-132 -25t-132 25 t-115 72t-81.5 123t-31 170zM897 1722q0 86 58 137.5t145 51.5q88 0 145.5 -51.5t57.5 -137.5q0 -83 -57.5 -134.5t-145.5 -51.5q-87 0 -145 51.5t-58 134.5zM987 1722q0 -45 33 -71.5t80 -26.5q48 0 79 26t31 72t-31.5 74.5t-78.5 28.5q-48 0 -80.5 -28.5t-32.5 -74.5z M1008 1722q0 -37 26 -58.5t66 -21.5t67 21.5t27 58.5q0 40 -27 62t-67 22t-66 -22t-26 -62z" />
<glyph unicode="&#xd8;" horiz-adv-x="1656" d="M94 721q0 148 43 273.5t116.5 212t171.5 147.5t207 87.5t223.5 23.5t221.5 -38l84 138h348v-39l-159 -262q213 -206 213 -543q0 -145 -41.5 -268.5t-113 -210t-166.5 -148t-201.5 -89t-219 -27t-217.5 31.5l-86 -141h-350v41l156 254q-108 97 -169 237.5t-61 319.5z M272 721q0 -324 256 -494l-125 -215h21l123 203q58 -34 142.5 -53t158.5 -17q104 2 199 40t171.5 108t122 181t45.5 247q0 155 -59 279.5t-180 203.5l129 219h-23l-125 -206q-131 79 -294 79q-107 2 -206.5 -34.5t-179.5 -105.5t-128 -182t-48 -253zM293 721q0 -135 46 -244 t121.5 -175.5t172 -102.5t197 -35t197 37.5t172 103.5t121.5 175t46 241q0 176 -79.5 306t-198.5 189t-258.5 60t-258.5 -57t-198.5 -188.5t-79.5 -309.5zM473 721q0 94 30.5 169.5t81 122t114.5 72t131.5 25.5t131.5 -25.5t114.5 -72t81 -122t30.5 -169.5 q0 -93 -30.5 -168.5t-81 -122t-114.5 -71.5t-131.5 -25t-131.5 25t-114.5 71.5t-81 122t-30.5 168.5z" />
<glyph unicode="&#xd9;" horiz-adv-x="1478" d="M172 477v957h346v-951q0 -82 66 -128t153 -46t152 46t65 128v951h349v-957q0 -115 -47 -210t-125.5 -157t-180.5 -96t-213 -34t-212 34t-180 96t-126 157t-47 210zM332 483q0 -107 59 -188.5t150 -121.5t196 -40t196 40t150.5 121.5t59.5 188.5v813h-23v-813 q0 -77 -32 -140.5t-86.5 -103.5t-122.5 -61.5t-142 -21.5t-142 21.5t-122.5 61.5t-86.5 103.5t-32 140.5v813h-22v-813zM418 1782v30l311 105l156 -342v-33h-113l-108 207l-23 -4l109 -203h-121z" />
<glyph unicode="&#xda;" horiz-adv-x="1478" d="M172 477v957h346v-951q0 -82 66 -128t153 -46t152 46t65 128v951h349v-957q0 -115 -47 -210t-125.5 -157t-180.5 -96t-213 -34t-212 34t-180 96t-126 157t-47 210zM332 483q0 -107 59 -188.5t150 -121.5t196 -40t196 40t150.5 121.5t59.5 188.5v813h-23v-813 q0 -77 -32 -140.5t-86.5 -103.5t-122.5 -61.5t-142 -21.5t-142 21.5t-122.5 61.5t-86.5 103.5t-32 140.5v813h-22v-813zM571 1542v33l156 342l311 -105v-30l-211 -240h-120l108 203l-22 4l-109 -207h-113z" />
<glyph unicode="&#xdb;" horiz-adv-x="1478" d="M172 477v957h346v-951q0 -82 66 -128t153 -46t152 46t65 128v951h349v-957q0 -115 -47 -210t-125.5 -157t-180.5 -96t-213 -34t-212 34t-180 96t-126 157t-47 210zM332 483q0 -107 59 -188.5t150 -121.5t196 -40t196 40t150.5 121.5t59.5 188.5v813h-23v-813 q0 -77 -32 -140.5t-86.5 -103.5t-122.5 -61.5t-142 -21.5t-142 21.5t-122.5 61.5t-86.5 103.5t-32 140.5v813h-22v-813zM334 1536v33l217 293h373l219 -293v-33h-115l-176 217h-23l177 -217h-136l-133 156l-125 -156h-141l176 217h-20l-178 -217h-115z" />
<glyph unicode="&#xdc;" horiz-adv-x="1478" d="M172 477v957h346v-951q0 -82 66 -128t153 -46t152 46t65 128v951h349v-957q0 -115 -47 -210t-125.5 -157t-180.5 -96t-213 -34t-212 34t-180 96t-126 157t-47 210zM274 1714q0 86 58 137.5t145 51.5t146 -51.5t59 -137.5q0 -83 -59 -134.5t-146 -51.5t-145 51.5 t-58 134.5zM332 483q0 -107 59 -188.5t150 -121.5t196 -40t196 40t150.5 121.5t59.5 188.5v813h-23v-813q0 -77 -32 -140.5t-86.5 -103.5t-122.5 -61.5t-142 -21.5t-142 21.5t-122.5 61.5t-86.5 103.5t-32 140.5v813h-22v-813zM367 1714q0 -46 31 -72t79 -26q49 0 81 26 t32 72t-32.5 74.5t-80.5 28.5q-47 0 -78.5 -28.5t-31.5 -74.5zM385 1714q0 -37 26.5 -58.5t65.5 -21.5q41 0 67.5 21.5t26.5 58.5q0 40 -26.5 62t-67.5 22q-39 0 -65.5 -22t-26.5 -62zM817 1714q0 86 58 137.5t145 51.5q88 0 145.5 -51.5t57.5 -137.5q0 -83 -57.5 -134.5 t-145.5 -51.5q-87 0 -145 51.5t-58 134.5zM907 1714q0 -45 33 -71.5t80 -26.5q48 0 79 26t31 72t-31.5 74.5t-78.5 28.5q-48 0 -80.5 -28.5t-32.5 -74.5zM928 1714q0 -37 26 -58.5t66 -21.5t67 21.5t27 58.5q0 40 -27 62t-67 22t-66 -22t-26 -62z" />
<glyph unicode="&#xdd;" horiz-adv-x="1361" d="M18 1378v56h396l260 -478h14l260 478h398v-56l-484 -776v-602h-362v602zM268 1296l402 -647v-512h22v512l402 647h-27l-385 -622l-387 622h-27zM504 1534v33l155 342l312 -105v-30l-211 -240h-121l109 203l-23 4l-109 -207h-112z" />
<glyph unicode="&#xde;" horiz-adv-x="1421" d="M182 0v1434h367v-183h264q111 0 203.5 -37t152.5 -98.5t101.5 -141.5t50.5 -168.5t0 -177t-50.5 -168.5t-101.5 -141.5t-152.5 -98t-203.5 -36.5h-264v-184h-367zM352 137h23v201h440q94 1 167.5 43t111.5 109t56 148t0 161.5t-56 147t-111.5 108t-167.5 41.5h-440v200 h-23v-1159zM375 362v715h440q77 0 139 -30.5t100.5 -81t59.5 -114.5t21.5 -131.5t-20 -131.5t-59 -114.5t-101 -81t-140.5 -30.5h-440zM549 514h262q41 0 74.5 22.5t51 58.5t26 79.5t1 87.5t-24.5 80t-50.5 59t-77.5 23q-38 1 -82.5 1t-98 -0.5t-81.5 -0.5v-410z" />
<glyph unicode="&#xe0;" d="M2 0v53l645 1399h158l647 -1399v-53h-358l-84 180h-566l-84 -180h-358zM209 139h27l96 203h792l95 -203h26l-514 1104h-12zM340 365h776l-389 833h-2zM401 1778v30l312 105l155 -342v-33h-112l-109 207l-22 -4l108 -203h-121zM578 510l147 330l152 -330h-299z" />
<glyph unicode="&#xe1;" d="M2 0v53l645 1399h158l647 -1399v-53h-358l-84 180h-566l-84 -180h-358zM209 139h27l96 203h792l95 -203h26l-514 1104h-12zM340 365l385 833h2l389 -833h-776zM578 510h299l-152 330zM594 1542v33l156 342l311 -105v-30l-211 -240h-121l109 203l-23 4l-108 -207h-113z " />
<glyph unicode="&#xe2;" d="M2 0v53l645 1399h158l647 -1399v-53h-358l-84 180h-566l-84 -180h-358zM209 139h27l96 203h792l95 -203h26l-514 1104h-12zM324 1522v32l217 293h372l220 -293v-32h-115l-176 217h-23l176 -217h-135l-133 155l-125 -155h-141l176 217h-21l-178 -217h-114zM340 365h776 l-389 833h-2zM578 510l147 330l152 -330h-299z" />
<glyph unicode="&#xe3;" d="M2 0v53l645 1399h158l647 -1399v-53h-358l-84 180h-566l-84 -180h-358zM209 139h27l96 203h792l95 -203h26l-514 1104h-12zM324 1608q55 165 163.5 223.5t264.5 -2.5q3 -1 22 -9t25.5 -10t24.5 -8.5t27 -7t24 -2t24 3t20 10.5t18.5 18t12.5 29q23 -10 87 -36.5t98 -42.5 q-33 -151 -146.5 -220t-251.5 -14q-7 3 -29.5 13t-37 16t-38 13.5t-41 7.5t-36 -3t-32.5 -17t-23 -36q-96 38 -176 74zM340 365h776l-389 833h-2zM453 1665l14 -6q87 97 258 22q193 -79 281 35l-17 8q-82 -100 -258 -22q-184 79 -278 -37zM578 510l147 330l152 -330h-299z " />
<glyph unicode="&#xe4;" d="M2 0v53l645 1399h158l647 -1399v-53h-358l-84 180h-566l-84 -180h-358zM209 139h27l96 203h792l95 -203h26l-514 1104h-12zM254 1686q0 86 58 137t145 51t146 -51.5t59 -136.5q0 -83 -59 -135t-146 -52q-86 0 -144.5 52t-58.5 135zM340 365h776l-389 833h-2zM346 1686 q0 -46 31.5 -72.5t79.5 -26.5q49 0 80.5 26.5t31.5 72.5t-32 74t-80 28q-47 0 -79 -28t-32 -74zM365 1686q0 -37 26.5 -58.5t65.5 -21.5q41 0 67.5 21.5t26.5 58.5q0 40 -26.5 61.5t-67.5 21.5q-39 0 -65.5 -22t-26.5 -61zM578 510l147 330l152 -330h-299zM797 1686 q0 86 57.5 137t144.5 51q88 0 145.5 -51t57.5 -137q0 -84 -57.5 -135.5t-145.5 -51.5q-86 0 -144 52t-58 135zM887 1686q0 -45 32.5 -72t79.5 -27q48 0 79.5 26.5t31.5 72.5t-32 74t-79 28q-48 0 -80 -28t-32 -74zM907 1686q0 -37 26 -58.5t66 -21.5t67.5 21.5t27.5 58.5 q0 39 -27.5 61t-67.5 22t-66 -21.5t-26 -61.5z" />
<glyph unicode="&#xe5;" d="M2 0v53l612 1329q-74 29 -117.5 89.5t-43.5 144.5q0 112 78.5 180t195.5 68q115 0 192.5 -68t77.5 -180q0 -84 -44 -144.5t-117 -89.5l616 -1329v-53h-358l-84 180h-566l-84 -180h-358zM209 139h27l96 203h792l95 -203h26l-514 1104h-12zM340 365h776l-389 833h-2z M578 510l147 330l152 -330h-299zM578 1616q0 -63 42 -99t107 -36q63 0 105 36.5t42 98.5q0 61 -42.5 97t-104.5 36q-65 0 -107 -36t-42 -97zM602 1616q0 -52 35 -81.5t90 -29.5q52 0 87.5 29.5t35.5 81.5q0 51 -35.5 80.5t-87.5 29.5q-54 0 -89.5 -29.5t-35.5 -80.5z" />
<glyph unicode="&#xe6;" horiz-adv-x="1773" d="M2 0v55l641 1379h979v-326h-467v-207h426v-326h-426v-249h485v-326h-827v313h-313q-107 -246 -138 -313h-360zM217 139h19q97 199 163 340h576v-325h526v20h-508v557h449v21h-449v508h490v22h-727zM410 498q118 258 358 762h207v-762h-565zM641 645h172l6 424h-2z" />
<glyph unicode="&#xe7;" horiz-adv-x="1609" d="M96 717q1 142 42.5 263t112 206t164.5 145.5t199.5 89.5t216.5 29q91 0 179 -19.5t171 -62.5t148.5 -105.5t112.5 -154.5t63 -203h-360q-74 211 -314 211q-161 0 -258.5 -110t-97.5 -289q0 -106 43 -196t125.5 -145.5t187.5 -56.5q120 0 205.5 59.5t114.5 172.5h360 q-14 -105 -51.5 -193t-90.5 -150t-122 -108t-143.5 -72t-157.5 -36l-20 -92q63 -10 100.5 -49.5t40.5 -90t-16 -106.5q-27 -65 -83.5 -103t-123 -44.5t-135.5 8.5t-123 49l16 190q22 -18 59.5 -25t70 3.5t40.5 36.5q11 38 -21.5 54.5t-76.5 16.5l39 154q-98 13 -187.5 49 t-168 98t-136 144t-91 193t-34.5 239zM276 717q0 -134 47.5 -245.5t126.5 -182t177.5 -109t203.5 -37.5h15l-49 -276q66 -16 99 -57t13 -103q-15 -43 -50.5 -66t-76.5 -23.5t-84 7.5l-4 -18q50 -11 96 -10t85 28t55 76q21 64 -12 112t-99 68l45 262q142 5 254.5 77 t175.5 202h-24q-66 -128 -179.5 -193t-259.5 -65q-80 0 -157 23t-145 69.5t-120 111.5t-82 155t-30 194q0 130 46 237.5t122 176t171 106t195 37.5q141 0 253 -60t178 -178h24q-69 125 -188 190.5t-267 65.5q-84 0 -164 -23.5t-150.5 -72t-124.5 -115.5t-85 -161t-31 -203z " />
<glyph unicode="&#xe8;" horiz-adv-x="1228" d="M182 0v1434h895v-328h-530v-203h487v-325h-487v-252h549v-326h-914zM342 1772v30l311 105l156 -342v-33h-113l-108 207l-23 -4l109 -203h-121zM354 152h602v20h-579v559h520v21h-520v510h561v20h-584v-1130z" />
<glyph unicode="&#xe9;" horiz-adv-x="1228" d="M182 0v1434h895v-328h-530v-203h487v-325h-487v-252h549v-326h-914zM354 152h602v20h-579v559h520v21h-520v510h561v20h-584v-1130zM465 1528v33l156 342l311 -105v-31l-211 -239h-121l109 203l-23 4l-108 -207h-113z" />
<glyph unicode="&#xea;" horiz-adv-x="1228" d="M182 0v1434h895v-328h-530v-203h487v-325h-487v-252h549v-326h-914zM223 1532v33l217 293h373l219 -293v-33h-114l-177 217h-22l176 -217h-135l-133 156l-125 -156h-142l177 217h-21l-178 -217h-115zM354 152h602v20h-579v559h520v21h-520v510h561v20h-584v-1130z" />
<glyph unicode="&#xeb;" horiz-adv-x="1228" d="M182 0v1434h895v-328h-530v-203h487v-325h-487v-252h549v-326h-914zM190 1696q0 81 54.5 129.5t136.5 48.5t137 -48.5t55 -129.5q0 -77 -55.5 -125.5t-136.5 -48.5t-136 48.5t-55 125.5zM276 1696q0 -43 30 -67.5t75 -24.5q46 0 76 24.5t30 67.5q0 44 -30 70t-76 26 q-45 0 -75 -26t-30 -70zM295 1696q0 -34 25 -54t61 -20q39 0 63.5 19.5t24.5 54.5q0 39 -24 59.5t-64 20.5q-36 0 -61 -21t-25 -59zM354 152h602v20h-579v559h520v21h-520v510h561v20h-584v-1130zM700 1696q0 81 54.5 129.5t136.5 48.5q83 0 136.5 -48t53.5 -130 q0 -77 -53.5 -125.5t-136.5 -48.5q-81 0 -136 48.5t-55 125.5zM784 1696q0 -42 31.5 -67t75.5 -25q45 0 74.5 24.5t29.5 67.5q0 44 -30 70t-74 26q-46 0 -76.5 -26t-30.5 -70zM805 1696q0 -34 24.5 -54t61.5 -20q38 0 63 20t25 54q0 38 -25 59t-63 21q-37 0 -61.5 -21 t-24.5 -59z" />
<glyph unicode="&#xec;" horiz-adv-x="847" d="M63 0v322h183v792h-168v320h698v-320h-168v-792h183v-322h-728zM98 1767v31l312 105l155 -342v-33h-112l-109 207l-22 -4l108 -203h-121zM201 150h450v20h-213v1092h197v20h-416v-20h199v-1092h-217v-20z" />
<glyph unicode="&#xed;" horiz-adv-x="847" d="M63 0v322h183v792h-168v320h698v-320h-168v-792h183v-322h-728zM201 150h450v20h-213v1092h197v20h-416v-20h199v-1092h-217v-20zM270 1532v33l156 342l311 -105v-30l-211 -240h-120l108 203l-22 4l-109 -207h-113z" />
<glyph unicode="&#xee;" horiz-adv-x="847" d="M20 1532v33l218 293h372l219 -293v-33h-114l-176 217h-23l176 -217h-135l-133 156l-125 -156h-141l176 217h-21l-178 -217h-115zM63 0v322h183v792h-168v320h698v-320h-168v-792h183v-322h-728zM201 150h450v20h-213v1092h197v20h-416v-20h199v-1092h-217v-20z" />
<glyph unicode="&#xef;" horiz-adv-x="847" d="M-49 1706q0 86 58 137t145 51t145.5 -51t58.5 -137q0 -83 -58.5 -134.5t-145.5 -51.5t-145 51.5t-58 134.5zM43 1706q0 -46 31.5 -72t79.5 -26q49 0 80.5 26t31.5 72t-32 74t-80 28q-47 0 -79 -28t-32 -74zM61 1706q0 -37 27 -58.5t66 -21.5q41 0 67.5 21.5t26.5 58.5 q0 40 -26.5 62t-67.5 22q-39 0 -66 -22.5t-27 -61.5zM63 0v322h183v792h-168v320h698v-320h-168v-792h183v-322h-728zM201 150h450v20h-213v1092h197v20h-416v-20h199v-1092h-217v-20zM494 1706q0 86 57.5 137t144.5 51q88 0 145.5 -51t57.5 -137q0 -83 -57.5 -134.5 t-145.5 -51.5q-86 0 -144 51.5t-58 134.5zM584 1706q0 -45 32.5 -71.5t79.5 -26.5q48 0 79.5 26t31.5 72t-32 74t-79 28q-48 0 -80 -28t-32 -74zM604 1706q0 -37 26 -58.5t66 -21.5t67.5 21.5t27.5 58.5q0 40 -27.5 62t-67.5 22t-66 -22t-26 -62z" />
<glyph unicode="&#xf0;" horiz-adv-x="1519" d="M10 553v321h172v560h541q136 -1 251.5 -41t197 -109t139.5 -160.5t85 -194.5t27 -212t-27 -212t-85 -194.5t-139.5 -160.5t-197 -109t-251.5 -41h-541v553h-172zM147 705h213v-551h359q170 0 295.5 83.5t181.5 208.5t56 271t-56 271t-181.5 208.5t-295.5 83.5h-359v-557 h-213v-18zM379 176v529h219v18h-219v537h340q124 -1 225 -48t163 -123t95.5 -173t33.5 -198.5t-33.5 -198.5t-95.5 -173t-163 -123t-225 -47h-340zM549 334h174q83 0 149.5 33t108 87t63.5 122.5t22 140.5t-22 140.5t-63.5 122.5t-108 87t-149.5 33h-174v-226h188v-321h-188 v-219z" />
<glyph unicode="&#xf1;" horiz-adv-x="1597" d="M182 0v1440h133l725 -709v703h375v-1436h-131l-723 707v-705h-379zM356 141h25v969q140 -135 426 -416q58 -57 416 -405h16v1005h-22v-970q-286 282 -431 417q-201 204 -407 404h-23v-1004zM393 1624q55 165 163.5 223.5t264.5 -2.5q3 -1 19.5 -8t22.5 -9l22.5 -7.5 t24 -7t22.5 -3.5t23 0l20 5t19 10.5t14 18.5t12 26q18 -8 83.5 -35.5t100.5 -44.5q-33 -151 -146 -220t-251 -14q-4 2 -34.5 15.5t-45.5 19t-44.5 12t-47.5 3.5t-37 -16.5t-29 -39.5q-96 38 -176 74zM522 1681l15 -6q88 98 258 23q193 -79 280 35l-16 8q-83 -100 -258 -23 q-185 80 -279 -37z" />
<glyph unicode="&#xf2;" horiz-adv-x="1658" d="M94 715q0 179 63 324t166.5 234t236 137.5t270 48.5t270 -48.5t236 -137.5t166.5 -234t63 -324q0 -180 -63 -325t-166.5 -234.5t-236 -138t-270 -48.5t-270 48.5t-236 138t-166.5 234.5t-63 325zM274 715q0 -139 48 -252t126 -182t178 -106.5t204 -37.5t204 37.5 t178 106.5t126 182t48 252t-48 251.5t-126 182t-178 107t-204 37t-204 -38t-178 -106.5t-126 -181.5t-48 -251.5zM295 715q0 -136 46 -245t121.5 -175.5t171.5 -102t196.5 -35t196.5 37.5t171.5 104t121.5 175t46 241t-46 240.5t-121.5 174.5t-171.5 103.5t-196.5 37.5 t-196.5 -34.5t-171.5 -102t-121.5 -175.5t-46 -244zM471 715q0 93 31 168.5t81.5 122t115 71.5t132 25t132 -25t115 -71.5t81.5 -122t31 -168.5q0 -94 -31 -170t-81.5 -123t-115 -72t-132 -25t-132 25t-115 72t-81.5 123t-31 170zM498 1794v31l311 104l156 -342v-33h-113 l-109 207l-22 -4l108 -203h-120z" />
<glyph unicode="&#xf3;" horiz-adv-x="1658" d="M94 715q0 179 63 324t166.5 234t236 137.5t270 48.5t270 -48.5t236 -137.5t166.5 -234t63 -324q0 -180 -63 -325t-166.5 -234.5t-236 -138t-270 -48.5t-270 48.5t-236 138t-166.5 234.5t-63 325zM274 715q0 -139 48 -252t126 -182t178 -106.5t204 -37.5t204 37.5 t178 106.5t126 182t48 252t-48 251.5t-126 182t-178 107t-204 37t-204 -38t-178 -106.5t-126 -181.5t-48 -251.5zM295 715q0 135 46 244t121.5 175.5t171.5 102t196.5 34.5t196.5 -37.5t171.5 -103.5t121.5 -174.5t46 -240.5t-46 -241t-121.5 -175t-171.5 -104t-196.5 -37.5 t-196.5 35t-171.5 102t-121.5 175.5t-46 245zM471 715q0 -94 31 -170t81.5 -123t115 -72t132 -25t132 25t115 72t81.5 123t31 170q0 93 -31 168.5t-81.5 122t-115 71.5t-132 25t-132 -25t-115 -71.5t-81.5 -122t-31 -168.5zM674 1550v33l155 342l312 -104v-31l-211 -240 h-121l109 203l-23 4l-109 -207h-112z" />
<glyph unicode="&#xf4;" horiz-adv-x="1658" d="M94 715q0 179 63 324t166.5 234t236 137.5t270 48.5t270 -48.5t236 -137.5t166.5 -234t63 -324q0 -180 -63 -325t-166.5 -234.5t-236 -138t-270 -48.5t-270 48.5t-236 138t-166.5 234.5t-63 325zM274 715q0 -139 48 -252t126 -182t178 -106.5t204 -37.5t204 37.5 t178 106.5t126 182t48 252t-48 251.5t-126 182t-178 107t-204 37t-204 -38t-178 -106.5t-126 -181.5t-48 -251.5zM295 715q0 -136 46 -245t121.5 -175.5t171.5 -102t196.5 -35t196.5 37.5t171.5 104t121.5 175t46 241t-46 240.5t-121.5 174.5t-171.5 103.5t-196.5 37.5 t-196.5 -34.5t-171.5 -102t-121.5 -175.5t-46 -244zM424 1550v33l217 293h373l219 -293v-33h-115l-176 217h-22l176 -217h-135l-134 156l-125 -156h-141l176 217h-20l-178 -217h-115zM471 715q0 93 31 168.5t81.5 122t115 71.5t132 25t132 -25t115 -71.5t81.5 -122 t31 -168.5q0 -94 -31 -170t-81.5 -123t-115 -72t-132 -25t-132 25t-115 72t-81.5 123t-31 170z" />
<glyph unicode="&#xf5;" horiz-adv-x="1658" d="M94 715q0 179 63 324t166.5 234t236 137.5t270 48.5t270 -48.5t236 -137.5t166.5 -234t63 -324q0 -180 -63 -325t-166.5 -234.5t-236 -138t-270 -48.5t-270 48.5t-236 138t-166.5 234.5t-63 325zM274 715q0 -139 48 -252t126 -182t178 -106.5t204 -37.5t204 37.5 t178 106.5t126 182t48 252t-48 251.5t-126 182t-178 107t-204 37t-204 -38t-178 -106.5t-126 -181.5t-48 -251.5zM295 715q0 -136 46 -245t121.5 -175.5t171.5 -102t196.5 -35t196.5 37.5t171.5 104t121.5 175t46 241t-46 240.5t-121.5 174.5t-171.5 103.5t-196.5 37.5 t-196.5 -34.5t-171.5 -102t-121.5 -175.5t-46 -244zM424 1632q55 165 163.5 223.5t264.5 -2.5q3 -1 19.5 -8t22.5 -9l22.5 -7.5t24 -7t22.5 -3.5t23 0l20 5t19 10.5t14 18.5t12 26q18 -8 83.5 -35.5t100.5 -44.5q-33 -151 -146 -219.5t-251 -13.5q-4 2 -34.5 15.5t-45.5 19 t-44.5 12t-47.5 3.5t-37 -16.5t-29 -39.5q-111 43 -176 73zM471 715q0 93 31 168.5t81.5 122t115 71.5t132 25t132 -25t115 -71.5t81.5 -122t31 -168.5q0 -94 -31 -170t-81.5 -123t-115 -72t-132 -25t-132 25t-115 72t-81.5 123t-31 170zM553 1690l14 -7q88 98 258 23 q193 -79 281 35l-16 8q-83 -101 -259 -23q-184 80 -278 -36z" />
<glyph unicode="&#xf6;" horiz-adv-x="1658" d="M94 715q0 179 63 324t166.5 234t236 137.5t270 48.5t270 -48.5t236 -137.5t166.5 -234t63 -324q0 -180 -63 -325t-166.5 -234.5t-236 -138t-270 -48.5t-270 48.5t-236 138t-166.5 234.5t-63 325zM274 715q0 -139 48 -252t126 -182t178 -106.5t204 -37.5t204 37.5 t178 106.5t126 182t48 252t-48 251.5t-126 182t-178 107t-204 37t-204 -38t-178 -106.5t-126 -181.5t-48 -251.5zM295 715q0 -136 46 -245t121.5 -175.5t171.5 -102t196.5 -35t196.5 37.5t171.5 104t121.5 175t46 241t-46 240.5t-121.5 174.5t-171.5 103.5t-196.5 37.5 t-196.5 -34.5t-171.5 -102t-121.5 -175.5t-46 -244zM354 1718q0 86 58 137.5t145 51.5t146 -51.5t59 -137.5q0 -83 -59 -134.5t-146 -51.5t-145 51.5t-58 134.5zM446 1718q0 -46 31.5 -72t79.5 -26q49 0 81 26t32 72t-32.5 74.5t-80.5 28.5q-47 0 -79 -28.5t-32 -74.5z M465 1718q0 -37 26.5 -58.5t65.5 -21.5q41 0 67.5 21.5t26.5 58.5q0 40 -26.5 62t-67.5 22q-39 0 -65.5 -22t-26.5 -62zM471 715q0 93 31 168.5t81.5 122t115 71.5t132 25t132 -25t115 -71.5t81.5 -122t31 -168.5q0 -94 -31 -170t-81.5 -123t-115 -72t-132 -25t-132 25 t-115 72t-81.5 123t-31 170zM897 1718q0 86 58 137.5t145 51.5q88 0 145.5 -51.5t57.5 -137.5q0 -83 -57.5 -134.5t-145.5 -51.5q-87 0 -145 51.5t-58 134.5zM987 1718q0 -45 33 -71.5t80 -26.5q48 0 79 26t31 72t-31.5 74.5t-78.5 28.5q-48 0 -80.5 -28.5t-32.5 -74.5z M1008 1718q0 -37 26 -58.5t66 -21.5t67 21.5t27 58.5q0 40 -27 62t-67 22t-66 -22t-26 -62z" />
<glyph unicode="&#xf8;" horiz-adv-x="1656" d="M94 721q0 148 43 273.5t116.5 212t171.5 147.5t207 87.5t223.5 23.5t221.5 -38l84 138h348v-39l-159 -262q213 -206 213 -543q0 -145 -41.5 -268.5t-113 -210t-166.5 -148t-201.5 -89t-219 -27t-217.5 31.5l-86 -141h-350v41l156 254q-108 97 -169 237.5t-61 319.5z M272 721q0 -324 256 -494l-125 -215h21l123 203q58 -34 142.5 -53t158.5 -17q104 2 199 40t171.5 108t122 181t45.5 247q0 155 -59 279.5t-180 203.5l129 219h-23l-125 -206q-131 79 -294 79q-107 2 -206.5 -34.5t-179.5 -105.5t-128 -182t-48 -253zM293 721q0 -135 46 -244 t121.5 -175.5t172 -102.5t197 -35t197 37.5t172 103.5t121.5 175t46 241q0 176 -79.5 306t-198.5 189t-258.5 60t-258.5 -57t-198.5 -188.5t-79.5 -309.5zM473 721q0 94 30.5 169.5t81 122t114.5 72t131.5 25.5t131.5 -25.5t114.5 -72t81 -122t30.5 -169.5 q0 -93 -30.5 -168.5t-81 -122t-114.5 -71.5t-131.5 -25t-131.5 25t-114.5 71.5t-81 122t-30.5 168.5z" />
<glyph unicode="&#xf9;" horiz-adv-x="1478" d="M172 477v957h346v-951q0 -82 66 -128t153 -46t152 46t65 128v951h349v-957q0 -115 -47 -210t-125.5 -157t-180.5 -96t-213 -34t-212 34t-180 96t-126 157t-47 210zM332 483q0 -107 59 -188.5t150 -121.5t196 -40t196 40t150.5 121.5t59.5 188.5v813h-23v-813 q0 -77 -32 -140.5t-86.5 -103.5t-122.5 -61.5t-142 -21.5t-142 21.5t-122.5 61.5t-86.5 103.5t-32 140.5v813h-22v-813zM418 1774v30l311 105l156 -342v-33h-113l-108 207l-23 -4l109 -203h-121z" />
<glyph unicode="&#xfa;" horiz-adv-x="1478" d="M172 477v957h346v-951q0 -82 66 -128t153 -46t152 46t65 128v951h349v-957q0 -115 -47 -210t-125.5 -157t-180.5 -96t-213 -34t-212 34t-180 96t-126 157t-47 210zM332 483q0 -107 59 -188.5t150 -121.5t196 -40t196 40t150.5 121.5t59.5 188.5v813h-23v-813 q0 -77 -32 -140.5t-86.5 -103.5t-122.5 -61.5t-142 -21.5t-142 21.5t-122.5 61.5t-86.5 103.5t-32 140.5v813h-22v-813zM594 1532v33l156 342l311 -105v-30l-211 -240h-121l109 203l-23 4l-108 -207h-113z" />
<glyph unicode="&#xfb;" horiz-adv-x="1478" d="M172 477v957h346v-951q0 -82 66 -128t153 -46t152 46t65 128v951h349v-957q0 -115 -47 -210t-125.5 -157t-180.5 -96t-213 -34t-212 34t-180 96t-126 157t-47 210zM332 483q0 -107 59 -188.5t150 -121.5t196 -40t196 40t150.5 121.5t59.5 188.5v813h-23v-813 q0 -77 -32 -140.5t-86.5 -103.5t-122.5 -61.5t-142 -21.5t-142 21.5t-122.5 61.5t-86.5 103.5t-32 140.5v813h-22v-813zM334 1528v33l217 292h373l219 -292v-33h-115l-176 217h-23l177 -217h-136l-133 155l-125 -155h-141l176 217h-20l-178 -217h-115z" />
<glyph unicode="&#xfc;" horiz-adv-x="1478" d="M172 477v957h346v-951q0 -82 66 -128t153 -46t152 46t65 128v951h349v-957q0 -115 -47 -210t-125.5 -157t-180.5 -96t-213 -34t-212 34t-180 96t-126 157t-47 210zM264 1712q0 86 58 137.5t145 51.5t146 -51.5t59 -137.5q0 -83 -59 -134.5t-146 -51.5t-145 51.5 t-58 134.5zM332 483q0 -107 59 -188.5t150 -121.5t196 -40t196 40t150.5 121.5t59.5 188.5v813h-23v-813q0 -77 -32 -140.5t-86.5 -103.5t-122.5 -61.5t-142 -21.5t-142 21.5t-122.5 61.5t-86.5 103.5t-32 140.5v813h-22v-813zM356 1712q0 -46 31.5 -72t79.5 -26q49 0 81 26 t32 72t-32.5 74.5t-80.5 28.5q-47 0 -79 -28.5t-32 -74.5zM375 1712q0 -37 26.5 -58.5t65.5 -21.5q41 0 67.5 21.5t26.5 58.5q0 40 -26.5 62t-67.5 22q-39 0 -65.5 -22t-26.5 -62zM807 1712q0 86 58 137.5t145 51.5q88 0 145 -51.5t57 -137.5q0 -84 -57 -135t-145 -51 q-87 0 -145 51.5t-58 134.5zM897 1712q0 -45 33 -71.5t80 -26.5q48 0 79 26t31 72t-31.5 74.5t-78.5 28.5q-48 0 -80.5 -28.5t-32.5 -74.5zM918 1712q0 -37 26 -58.5t66 -21.5t67 21.5t27 58.5q0 40 -27 62t-67 22t-66 -22t-26 -62z" />
<glyph unicode="&#xfd;" horiz-adv-x="1361" d="M18 1378v56h396l260 -478h14l260 478h398v-56l-484 -776v-602h-362v602zM268 1296l402 -647v-512h22v512l402 647h-27l-385 -622l-387 622h-27zM508 1528v33l156 342l311 -105v-31l-211 -239h-121l109 203l-23 4l-108 -207h-113z" />
<glyph unicode="&#xfe;" horiz-adv-x="1421" d="M182 0v1434h367v-183h264q111 0 203.5 -37t152.5 -98.5t101.5 -141.5t50.5 -168.5t0 -177t-50.5 -168.5t-101.5 -141.5t-152.5 -98t-203.5 -36.5h-264v-184h-367zM352 137h23v201h440q94 1 167.5 43t111.5 109t56 148t0 161.5t-56 147t-111.5 108t-167.5 41.5h-440v200 h-23v-1159zM375 362v715h440q77 0 139 -30.5t100.5 -81t59.5 -114.5t21.5 -131.5t-20 -131.5t-59 -114.5t-101 -81t-140.5 -30.5h-440zM549 514h262q41 0 74.5 22.5t51 58.5t26 79.5t1 87.5t-24.5 80t-50.5 59t-77.5 23q-38 1 -82.5 1t-98 -0.5t-81.5 -0.5v-410z" />
<glyph unicode="&#xff;" horiz-adv-x="1361" d="M18 1378v56h396l260 -478h14l260 478h398v-56l-484 -776v-602h-362v602zM207 1716q0 86 58 137.5t145 51.5t145.5 -51.5t58.5 -137.5q0 -83 -58.5 -134.5t-145.5 -51.5t-145 51.5t-58 134.5zM268 1296l402 -647v-512h22v512l402 647h-27l-385 -622l-387 622h-27z M299 1716q0 -46 31.5 -72t79.5 -26q49 0 80.5 26t31.5 72t-32 74.5t-80 28.5q-47 0 -79 -28.5t-32 -74.5zM317 1716q0 -37 27 -58.5t66 -21.5q41 0 67.5 21.5t26.5 58.5q0 40 -26.5 62t-67.5 22q-39 0 -66 -22.5t-27 -61.5zM750 1716q0 86 57.5 137.5t144.5 51.5 q88 0 145.5 -51.5t57.5 -137.5q0 -83 -57.5 -134.5t-145.5 -51.5q-86 0 -144 51.5t-58 134.5zM840 1716q0 -45 32.5 -71.5t79.5 -26.5q48 0 79.5 26t31.5 72t-32 74.5t-79 28.5q-48 0 -80 -28.5t-32 -74.5zM860 1716q0 -37 26 -58.5t66 -21.5t67.5 21.5t27.5 58.5 q0 40 -27.5 62t-67.5 22t-66 -22t-26 -62z" />
<glyph unicode="&#x152;" horiz-adv-x="1961" d="M94 717q0 121 28 227.5t78 186.5t118.5 143.5t150.5 103t173 60t187 19.5t191 -23h790v-326h-510v-207h467v-326h-467v-249h529v-326h-817q-97 -22 -194 -23t-187 19.5t-171 60t-148 103t-115.5 144t-75.5 186t-27 227.5zM276 717q0 -120 34.5 -221t94.5 -170.5 t142 -114.5t175 -59.5t196.5 0t203.5 59.5v-57h568v20h-547v557h485v21h-485v508h528v22h-549v-63q-154 74 -293 71q-108 -1 -205.5 -37.5t-176 -106t-125 -180.5t-46.5 -249zM295 717q0 -140 47.5 -251.5t129.5 -178.5t186.5 -99.5t225 -21t238.5 64.5v967q-162 72 -293 72 q-103 0 -197 -35t-170 -101.5t-121.5 -174.5t-45.5 -242zM471 717q0 76 22.5 141t60.5 109.5t88 76.5t105 45.5t112.5 12t109.5 -18.5v-737q-52 -17 -109.5 -18.5t-112.5 12.5t-105 46t-88 77.5t-60.5 111t-22.5 142.5z" />
<glyph unicode="&#x153;" horiz-adv-x="1961" d="M94 717q0 121 28 227.5t78 186.5t118.5 143.5t150.5 103t173 60t187 19.5t191 -23h790v-326h-510v-207h467v-326h-467v-249h529v-326h-817q-97 -22 -194 -23t-187 19.5t-171 60t-148 103t-115.5 144t-75.5 186t-27 227.5zM276 717q0 -120 34.5 -221t94.5 -170.5 t142 -114.5t175 -59.5t196.5 0t203.5 59.5v-57h568v20h-547v557h485v21h-485v508h528v22h-549v-63q-154 74 -293 71q-108 -1 -205.5 -37.5t-176 -106t-125 -180.5t-46.5 -249zM295 717q0 -140 47.5 -251.5t129.5 -178.5t186.5 -99.5t225 -21t238.5 64.5v967q-162 72 -293 72 q-103 0 -197 -35t-170 -101.5t-121.5 -174.5t-45.5 -242zM471 717q0 76 22.5 141t60.5 109.5t88 76.5t105 45.5t112.5 12t109.5 -18.5v-737q-52 -17 -109.5 -18.5t-112.5 12.5t-105 46t-88 77.5t-60.5 111t-22.5 142.5z" />
<glyph unicode="&#x178;" horiz-adv-x="1361" d="M18 1378v56h396l260 -478h14l260 478h398v-56l-484 -776v-602h-362v602zM207 1716q0 86 58 137.5t145 51.5t145.5 -51.5t58.5 -137.5q0 -83 -58.5 -134.5t-145.5 -51.5t-145 51.5t-58 134.5zM268 1296l402 -647v-512h22v512l402 647h-27l-385 -622l-387 622h-27z M299 1716q0 -46 31.5 -72t79.5 -26q49 0 80.5 26t31.5 72t-32 74.5t-80 28.5q-47 0 -79 -28.5t-32 -74.5zM317 1716q0 -37 27 -58.5t66 -21.5q41 0 67.5 21.5t26.5 58.5q0 40 -26.5 62t-67.5 22q-39 0 -66 -22.5t-27 -61.5zM750 1716q0 86 57.5 137.5t144.5 51.5 q88 0 145.5 -51.5t57.5 -137.5q0 -83 -57.5 -134.5t-145.5 -51.5q-86 0 -144 51.5t-58 134.5zM840 1716q0 -45 32.5 -71.5t79.5 -26.5q48 0 79.5 26t31.5 72t-32 74.5t-79 28.5q-48 0 -80 -28.5t-32 -74.5zM860 1716q0 -37 26 -58.5t66 -21.5t67.5 21.5t27.5 58.5 q0 40 -27.5 62t-67.5 22t-66 -22t-26 -62z" />
<glyph unicode="&#x2c6;" horiz-adv-x="985" d="M84 1198v33l217 293h373l219 -293v-33h-115l-176 217h-22l176 -217h-135l-134 156l-125 -156h-141l176 217h-20l-178 -217h-115z" />
<glyph unicode="&#x2dc;" horiz-adv-x="980" d="M78 1237q55 165 163.5 223.5t264.5 -2.5q3 -1 19.5 -8t22.5 -9l22.5 -7.5t24 -7t22.5 -3.5t23 0l20 5t19 10.5t14 18.5t12 26q18 -8 83.5 -35.5t100.5 -44.5q-33 -151 -146 -220t-251 -14q-4 2 -34.5 15.5t-45.5 19t-44.5 12t-47.5 3.5t-37 -16.5t-29 -39.5 q-96 38 -176 74zM207 1294l14 -6q88 98 258 23q193 -79 281 35l-17 8q-83 -100 -258 -23q-184 79 -278 -37z" />
<glyph unicode="&#x2000;" horiz-adv-x="972" />
<glyph unicode="&#x2001;" horiz-adv-x="1944" />
<glyph unicode="&#x2002;" horiz-adv-x="972" />
<glyph unicode="&#x2003;" horiz-adv-x="1944" />
<glyph unicode="&#x2004;" horiz-adv-x="648" />
<glyph unicode="&#x2005;" horiz-adv-x="486" />
<glyph unicode="&#x2006;" horiz-adv-x="324" />
<glyph unicode="&#x2007;" horiz-adv-x="324" />
<glyph unicode="&#x2008;" horiz-adv-x="243" />
<glyph unicode="&#x2009;" horiz-adv-x="388" />
<glyph unicode="&#x200a;" horiz-adv-x="108" />
<glyph unicode="&#x2026;" horiz-adv-x="1636" d="M68 174q0 85 58 138t146 53q85 0 143 -53t58 -138q0 -83 -58 -134.5t-143 -51.5q-88 0 -146 51.5t-58 134.5zM162 174q0 -46 31.5 -73t78.5 -27q45 0 77 27.5t32 72.5t-32 71.5t-77 26.5q-48 0 -79 -26t-31 -72zM178 174q0 -39 26.5 -60.5t67.5 -21.5q38 0 64 22t26 60 q0 39 -26 61.5t-64 22.5q-41 0 -67.5 -22.5t-26.5 -61.5zM594 174q0 85 58.5 138t146.5 53q85 0 142.5 -53t57.5 -138q0 -83 -57.5 -134.5t-142.5 -51.5q-88 0 -146.5 51.5t-58.5 134.5zM688 174q0 -46 32 -73t79 -27q45 0 76.5 27t31.5 73q0 45 -31.5 71.5t-76.5 26.5 q-48 0 -79.5 -26t-31.5 -72zM705 174q0 -39 26.5 -60.5t67.5 -21.5q38 0 64 22t26 60q0 39 -26 61.5t-64 22.5q-41 0 -67.5 -22.5t-26.5 -61.5zM1122 174q0 85 58.5 138t146.5 53q85 0 143 -53t58 -138q0 -83 -58 -134.5t-143 -51.5q-88 0 -146.5 51.5t-58.5 134.5z M1217 174q0 -46 31.5 -73t78.5 -27q45 0 77 27.5t32 72.5t-32 71.5t-77 26.5q-48 0 -79 -26t-31 -72zM1233 174q0 -39 26.5 -60.5t67.5 -21.5q38 0 64 22t26 60q0 39 -26 61.5t-64 22.5q-41 0 -67.5 -22.5t-26.5 -61.5z" />
<glyph unicode="&#x202f;" horiz-adv-x="388" />
<glyph unicode="&#x205f;" horiz-adv-x="486" />
<glyph unicode="&#x25fc;" horiz-adv-x="1433" d="M0 0v1434h1434v-1434h-1434z" />
</font>
</defs>
</svg>
