<?xml version="1.0" standalone="no"?>
<!DOCTYPE svg PUBLIC "-//W3C//DTD SVG 1.1//EN" "http://www.w3.org/Graphics/SVG/1.1/DTD/svg11.dtd" >
<svg xmlns="http://www.w3.org/2000/svg">
<metadata></metadata>
<defs>
<font id="nella_sue_demoregular" horiz-adv-x="0" >
<font-face units-per-em="2048" ascent="1638" descent="-410" />
<missing-glyph horiz-adv-x="643" />
<glyph unicode="lf" horiz-adv-x="1515" d="M4 200q-4 40 0 79q6 59 17.5 138t27.5 138t35.5 128t38 133.5t35 117.5t26.5 82q49 129 104.5 268t131.5 256q37 57 79 109.5t109 70.5q61 16 91 -6t37 -70.5t-3 -114t-29.5 -134t-44 -134t-45.5 -110.5q-43 -96 -97 -199.5t-118.5 -204t-137.5 -194.5t-150 -172 q-4 -37 -4.5 -87t6.5 -83q20 -102 99 -134t184.5 -17.5t220 62.5t206.5 105q35 29 74 57.5t82 57.5l8 29q25 86 50.5 191.5t55 220t63.5 233.5t75 228.5t88 205.5t102 168q45 57 100.5 85t108.5 28q76 0 130.5 -53.5t54.5 -164.5q0 -23 -8.5 -39t-39.5 -16q-16 0 -29.5 8.5 t-13.5 26.5v23q0 72 -31.5 113.5t-78.5 41.5q-53 0 -99.5 -45t-83 -109.5t-63.5 -134t-45 -118.5q-27 -78 -59.5 -194t-64.5 -239.5t-62.5 -240.5t-51.5 -197q135 55 234.5 87t166 47.5t100.5 19.5t40 4q16 0 16 -19q0 -20 -37.5 -28t-111.5 -24.5t-182.5 -55.5t-249.5 -121 q-12 -43 -30.5 -123t-42 -178t-53.5 -206.5t-67 -206t-82 -175.5t-98 -114q-33 -23 -69.5 -36.5t-73.5 -13.5q-47 0 -81 16.5t-55.5 45.5t-31.5 66.5t-10 80.5q0 66 19.5 133.5t43.5 114.5q61 121 121.5 212t128.5 167q-76 -35 -160 -62.5t-162.5 -41t-148.5 -8t-117 37.5 q-27 16 -45 46t-28.5 66t-14.5 76zM129 494q59 70 113.5 152.5t103.5 170.5t93 175t81 165q37 80 77 183.5t62 201.5q8 37 5.5 66.5t-17 45t-35 13.5t-45.5 -29q-23 -23 -42 -50t-36 -54q-80 -145 -142.5 -297.5t-113.5 -310.5q-12 -39 -26 -93.5t-27.5 -114t-27 -118.5 t-23.5 -106zM449 -535q0 -47 15 -81.5t62 -34.5q29 0 64 18.5t74 59.5q33 35 63.5 99t59 143t54 166t47 166t37 142.5t25.5 96.5q-4 -4 -37.5 -27t-81.5 -68q-53 -51 -119.5 -129.5t-125 -171t-98 -191.5t-39.5 -188z" />
<glyph />
<glyph unicode="&#xd;" horiz-adv-x="1024" />
<glyph />
<glyph />
<glyph unicode=" "  horiz-adv-x="643" />
<glyph unicode="&#x09;" horiz-adv-x="643" />
<glyph unicode="&#xa0;" horiz-adv-x="643" />
<glyph unicode="0" horiz-adv-x="1200" d="M141 457q0 84 14.5 176t40 183t61.5 179t81 166q29 49 70 103.5t92 98.5t109.5 72.5t123.5 28.5q57 0 96 -24.5t86 -71.5l3 -2q76 -113 96 -260q4 -31 7 -62.5t3 -64.5q0 -88 -16.5 -181t-45 -184.5t-69.5 -177.5t-92 -160q-23 -31 -63 -81t-94 -98t-116.5 -81.5 t-128.5 -33.5q-74 0 -123 52t-79.5 125.5t-43 155.5t-12.5 142zM258 506q0 -12 1 -21.5t1 -19.5q0 -37 5 -103.5t23.5 -131t53.5 -112.5t96 -48q66 0 129.5 53t115.5 124.5t90 143.5t50 111q80 240 88 416q0 16 1 29.5t1 29.5q0 201 -94 342q-4 0 -4 4q-59 68 -121 68 q-18 0 -43.5 -8.5t-55.5 -32t-64.5 -64.5t-73.5 -104q-29 -47 -51.5 -93.5t-39 -87t-27.5 -73.5t-17 -54q-39 -135 -51.5 -223t-12.5 -145z" />
<glyph unicode="1" horiz-adv-x="751" d="M182 20q41 291 76 513.5t64.5 394.5t54 300t47.5 232v2q4 10 33.5 22.5t48.5 12.5q14 0 22 -8q2 -2 2 -10v-6q-70 -336 -131 -689.5t-116 -744.5q-4 -20 -28 -32.5t-44 -12.5q-29 0 -29 26z" />
<glyph unicode="2" horiz-adv-x="1153" d="M58.5 1111q-11.5 7 0.5 24q27 35 76 76.5t94 72.5q102 72 222 115t245 35q86 -6 134.5 -44t70 -97.5t21.5 -132.5t-13 -148q-29 -180 -100.5 -359.5t-157.5 -337.5q-51 -96 -113.5 -174t-164.5 -118q-29 -10 -71 -18.5t-82 -6.5t-70.5 18.5t-32.5 57.5q-4 49 28.5 81.5 t105.5 58.5t188.5 47.5t275.5 47.5q100 18 181 40t112 32q49 14 81.5 29.5t56 25.5t42 13.5t41.5 -7.5q12 -6 11 -19t-21 -26q-23 -12 -53.5 -25.5t-61.5 -24.5t-53.5 -18t-26.5 -10q-182 -51 -350 -79.5t-340 -63.5q-35 -8 -59.5 -20.5t-30.5 -18.5q-16 -23 -6 -49.5 t53 -19.5q12 2 24.5 5t20.5 5q43 14 86 61t87 118t87 162t84 193q53 135 88 271.5t35 246t-44 176t-149 62.5q10 0 0 -1t-25.5 -3t-27.5 -3t-6 -1q-115 -23 -212 -86.5t-175 -147.5q-6 -6 3 3.5t17.5 17.5t7 7t-27.5 -28q-12 -10 -33.5 -16t-41 -6t-31 7z" />
<glyph unicode="3" horiz-adv-x="1572" d="M160 152q0 16 26.5 28.5t51.5 12.5q23 0 26 -7q20 -31 67.5 -56.5t106 -43.5t124 -28.5t126.5 -10.5q82 0 160 17.5t146.5 50t126 75.5t98.5 97q66 84 82 159.5t16 139.5q0 61 -23.5 112.5t-63.5 88t-95.5 56t-116.5 19.5q-109 0 -199 -53q-29 -20 -48 -31.5t-42 -11.5 q-10 0 -28.5 3t-18.5 19q0 10 10 19l10 8q18 16 50 33q166 117 242.5 219t76.5 201q0 59 -27.5 80.5t-87.5 21.5q-70 0 -135 -22.5t-125.5 -58.5t-113 -79t-95.5 -86q-10 -10 -26.5 -12t-28.5 -2t-27.5 3t-15.5 15t12 25q176 158 320.5 233.5t267.5 75.5q92 0 143.5 -54 t51.5 -126q0 -25 -8.5 -59.5t-32 -78.5t-66.5 -98.5t-112 -117.5q25 4 50 7t50 3q145 0 241 -73.5t119 -194.5q4 -18 6.5 -38t2.5 -40q0 -131 -68 -241.5t-177.5 -191.5t-249.5 -127t-288 -46q-137 0 -261 38.5t-222 112.5q-8 4 -8 15z" />
<glyph unicode="4" horiz-adv-x="1284" d="M135 733q0 8 2 12q18 53 34.5 103.5t35 103t39 108.5t45.5 122l16 47q6 16 33 24.5t49 8.5q33 0 33 -25q-31 -80 -55.5 -151.5t-51.5 -143.5l-8 -22l-45 -129q121 16 225.5 33.5t206.5 33.5q25 174 44.5 325.5t35.5 305.5l10 16q12 14 32 23.5t36 9.5q25 0 25 -27 l-72 -503v-7l-19 -127l263 48q8 2 13 3t9 1q16 0 20.5 -6.5t4.5 -10.5q0 -18 -37 -32.5t-87 -26.5t-104.5 -21.5t-89.5 -17.5q-29 -205 -56.5 -409.5t-43.5 -378.5q-2 -16 -15.5 -25.5t-29 -13.5t-28.5 -5.5t-15 -1.5h-10v11q23 211 48 411.5t58 393.5q-129 -29 -254 -53.5 t-252 -43.5q-10 0 -27.5 6.5t-17.5 30.5z" />
<glyph unicode="5" horiz-adv-x="1298" d="M164 -43q0 14 16.5 20.5t38.5 12.5q139 35 270.5 102.5t231.5 153.5t160.5 184t60.5 195q0 115 -62.5 162t-164.5 47q-68 0 -131.5 -18.5t-122 -48.5t-109.5 -65.5t-92 -70.5q-6 -4 -19.5 -9.5t-27.5 -5.5q-33 0 -33 25q0 2 1 4t1 4q23 143 40.5 289.5t39.5 292.5 q-12 0 -27.5 12t-17.5 29q0 8 4 18t25 15q213 49 424 92t440 90q4 2 12 2q12 0 15.5 -6t3.5 -10v-5q0 -31 -31 -48t-74 -28.5t-90 -18.5t-78 -13q-16 -4 -60 -12.5t-100.5 -18.5t-119 -22.5t-113.5 -23.5t-84 -21.5t-33 -16.5q-18 -125 -32.5 -248t-32.5 -249q39 29 89 57.5 t105.5 52t116 38.5t123.5 15q70 0 128 -19.5t100 -53t65.5 -81.5t23.5 -106q0 -76 -26.5 -147.5t-73.5 -138.5q-55 -78 -151.5 -155t-204 -138.5t-210 -99.5t-171.5 -38q-39 0 -43 23z" />
<glyph unicode="6" horiz-adv-x="1128" d="M154 283q0 66 19.5 154.5t56 192t90 216t121 222.5t147.5 212t172 186q10 10 34.5 15.5t43.5 5.5q25 0 24 -12q0 -4 -4 -9q-123 -113 -225.5 -251t-188.5 -308q-35 -68 -69.5 -144.5t-63 -156.5t-46 -156.5t-17.5 -142.5q0 -63 16 -125q33 57 74 120t90 123t105.5 113.5 t117.5 90.5q8 6 27.5 16t45.5 20.5t55.5 18.5t58.5 8q59 0 94 -43q16 -23 23.5 -49.5t7.5 -54.5q0 -41 -12.5 -84t-32 -83t-42 -74t-42.5 -58q-98 -117 -217 -186.5t-242 -69.5q-109 0 -165 74.5t-56 218.5zM291 121q45 -70 119 -70q72 0 151.5 52.5t147 126t112.5 154.5 t45 140q0 43 -22.5 67.5t-57.5 24.5q-59 0 -127.5 -48t-135 -120.5t-126 -158.5t-102.5 -162q0 -2 -4 -6z" />
<glyph unicode="7" horiz-adv-x="1183" d="M178 1143q0 14 27 28q180 72 385 143.5t426 110.5q4 2 12 2q4 0 18.5 -2t20.5 -12q2 -4 2 -10q0 -10 -2 -14q-160 -344 -273.5 -693.5t-215.5 -705.5q-2 -4 -14.5 -13.5t-29 -19.5t-32 -17.5t-23.5 -9.5q-10 -6 -10 9q0 4 4 12t4 12q98 338 211 688t268 697 q-180 -39 -346 -100.5t-336 -133.5l-24 -2q-4 0 -16.5 2t-24.5 5t-21.5 9.5t-9.5 14.5z" />
<glyph unicode="8" horiz-adv-x="1007" d="M199 154q0 66 29.5 134t75.5 136t102.5 135.5t109.5 130.5q-33 51 -67.5 110.5t-64.5 121t-48.5 124t-18.5 121.5q0 66 27 122.5t74 98.5t114.5 65.5t147.5 23.5q92 0 168 -35t117 -96q16 16 43 16q16 0 28.5 -7t12.5 -24q0 -8 -2 -14q-59 -162 -162 -311.5t-252 -313.5 q53 -92 94 -185t41 -183q0 -66 -26.5 -127.5t-77 -108.5t-124 -74.5t-167.5 -27.5q-96 0 -135 51t-39 117zM279 145q0 -47 37.5 -72.5t86.5 -25.5q57 0 105.5 23.5t83.5 61.5t53.5 86t18.5 99q0 20 -2.5 43t-6.5 46q-25 104 -92 210q-45 -51 -92 -110.5t-86 -124.5 q-10 -18 -28.5 -46t-36 -60.5t-29.5 -65.5t-12 -64zM414 1204q0 -49 11 -93t19 -67q25 -72 62 -139t78 -135q90 104 182 223t158 264q-25 4 -35 23q-25 59 -96.5 97t-153.5 38q-88 0 -154 -47q-41 -29 -56 -73t-15 -91z" />
<glyph unicode="9" horiz-adv-x="1050" d="M190 -88q0 8 11 14q158 111 282.5 294t210.5 433q8 16 23.5 55.5t32 91.5t35 112.5t32.5 119.5q-111 -170 -231.5 -268t-233.5 -98q-66 0 -100.5 44t-34.5 128q0 78 32 160.5t82 157.5t112.5 138.5t125.5 104.5q33 23 85.5 36t99.5 13q35 0 76.5 -10t70.5 -43 q47 -53 47 -162q0 -63 -14 -132t-27 -120l-4 -14q-88 -362 -248.5 -629.5t-378.5 -421.5q-8 -4 -28.5 -8t-36.5 -4q-20 0 -21 8zM315 848q0 -41 14.5 -77t59.5 -36q49 0 111.5 40t126 105.5t121 146.5t96.5 165q0 10 1 21.5t1 21.5q0 88 -34 118.5t-83 30.5q-18 0 -45 -6 t-60.5 -25.5t-73.5 -55t-85 -93.5q-78 -100 -114 -193t-36 -163z" />
<glyph unicode="A" horiz-adv-x="1665" d="M2 86q0 57 33 101t85 75t115.5 47.5t126.5 16.5q61 0 125 -9.5t129 -21.5q129 174 226.5 366.5t191.5 389.5q35 74 70 152.5t77 155.5t91 146.5t114 122.5q70 57 113 58q51 0 70.5 -63.5t19.5 -154.5q0 -68 -7 -140.5t-16.5 -137t-19.5 -113.5t-12 -67 q-35 -197 -69.5 -389.5t-61.5 -389.5q102 20 196.5 61t180.5 109q10 8 25.5 12.5t25.5 4.5q20 0 20 -10t-20 -25q-96 -78 -207 -129t-229 -80q-10 -86 -20.5 -177t-10.5 -183q0 -70 8 -137.5t31 -133.5q0 -4 1 -5t1 -3q0 -12 -14 -12q-35 0 -55.5 39t-31 94t-14.5 116.5 t-4 106.5q0 63 4 131t10 146q-84 -14 -176 -15q-117 0 -228.5 23.5t-238.5 52.5q0 -2 -2 -4q-33 -39 -90 -82t-126.5 -78t-143.5 -58.5t-137 -23.5q-61 0 -108.5 28t-47.5 87zM74 102q0 -36 45 -61q20 -10 53 -10q39 0 91 13t107.5 40t107.5 63.5t91 85.5 q-59 10 -116.5 16.5t-114.5 6.5q-51 0 -99.5 -12.5t-85 -33t-58 -48t-21.5 -60.5zM707 274q86 -18 173 -36.5t177 -22.5q29 -4 58.5 -4h58.5q66 0 131 6q20 217 60 425t77 423q20 119 38.5 228.5t18.5 244.5q0 29 -4 50.5t-16 21.5q-14 0 -36 -21.5t-44.5 -52.5t-44 -63.5 t-33.5 -55.5q-80 -137 -148.5 -284.5t-139 -295t-149.5 -291t-177 -272.5z" />
<glyph unicode="B" horiz-adv-x="1429" d="M14 1704q0 16 30 30.5t54 15.5h11q123 -29 244.5 -65t238.5 -83q57 -25 125.5 -55.5t129 -72.5t100.5 -95.5t40 -123.5q0 -61 -36 -114.5t-94 -97.5t-130 -78.5t-143 -61.5q100 -6 199.5 -36.5t179 -89t130 -148.5t50.5 -213q0 -72 -21.5 -139.5t-62.5 -129.5 q92 6 182 16.5t174 39.5q23 8 42.5 11t31.5 3q23 0 22 -6q0 -10 -30 -25q-111 -55 -228.5 -72.5t-238.5 -25.5q-49 -55 -113.5 -101t-138.5 -79t-154 -51.5t-159 -18.5q-25 0 -51.5 3t-50 10.5t-38 20.5t-14.5 34q0 53 52 92t125 64.5t147.5 41t119.5 21.5q49 6 101.5 9 t105.5 7q39 59 60.5 126t21.5 134q0 113 -51 197t-130 137t-175.5 80t-186.5 27q-29 0 -58.5 -2t-57.5 -6q-16 -104 -35 -219t-43.5 -232t-58 -230.5t-82.5 -218.5q-8 -16 -31 -25t-39 -9q-10 0 -10 6l2 4q25 47 50 126t48 175t42 201.5t32 205.5q16 131 29.5 253t24.5 242 t20.5 243t17.5 254q-31 8 -85 21.5t-106.5 27.5t-91.5 26.5t-39 18.5zM358 -80q0 -39 95 -39q37 0 85 8.5t103 26.5q70 23 137.5 67t120.5 99l-127 -12q-39 -6 -108.5 -15.5t-137 -27t-118 -44t-50.5 -63.5zM379 899q61 18 146 52t162 79t131 99.5t54 115.5q0 70 -88 144 q-72 59 -157.5 103t-177.5 79q-12 -170 -29 -337t-41 -335z" />
<glyph unicode="C" horiz-adv-x="1562" d="M2 543q0 135 43 280.5t121 278.5q63 111 150 221.5t190.5 198.5t220.5 143t240 55q72 0 123 -20.5t85.5 -56t57 -81.5t35.5 -96v-4q0 -6 -7.5 -13t-19.5 -7q-27 0 -41 14t-26.5 37t-25.5 48.5t-35.5 48t-60.5 36.5t-100 14q-25 0 -79 -10t-124.5 -42t-150.5 -89 t-158 -151q-178 -215 -251.5 -402.5t-73.5 -337.5q0 -166 58 -266t149.5 -155.5t200 -73t208.5 -17.5q137 0 304 32t392 103q25 8 55.5 20.5t58.5 24t51.5 19.5t35.5 8q10 0 12 -8q0 -4 1 -7t1 -7q0 -10 -8 -19.5t-35 -21.5q-20 -10 -76.5 -32t-125 -46.5t-138 -48 t-116.5 -35.5q-4 0 -50 -12.5t-115 -26.5t-152 -25.5t-160 -11.5q-186 0 -313.5 43t-205 117t-111.5 172t-34 209z" />
<glyph unicode="D" horiz-adv-x="1640" d="M2 6q0 39 22.5 72t58.5 56.5t78 35.5t79 12q59 0 117.5 -10t117.5 -25q49 74 89 171.5t73 206t57.5 226t42 232.5t27.5 222.5t14 199.5q0 4 7.5 15.5t18.5 23.5t24.5 21.5t27.5 9.5q10 0 14 -14.5t4 -30.5v-17q-10 -172 -36.5 -354t-67.5 -354.5t-96.5 -322 t-122.5 -255.5q80 -23 158.5 -42t160.5 -19q125 0 236 57t193.5 151.5t131 212t48.5 240.5q0 74 -19 147q-47 170 -151.5 294t-240.5 220.5t-290.5 172t-298.5 149.5q-12 6 -12 12q0 10 20.5 17.5t42.5 7.5q18 0 39 -8q104 -53 220 -110.5t230 -124t218 -145.5t183 -175.5 t126 -212t47 -254.5q0 -133 -55 -261t-152.5 -228.5t-228.5 -161t-283 -60.5q-123 0 -245 39l-111 35q-12 -20 -47 -53t-84 -65t-109.5 -55.5t-123.5 -23.5q-61 0 -106.5 36t-45.5 87zM68 4q0 -29 24.5 -45t65.5 -16h4q48 0 104 26q49 23 95.5 55.5t80.5 75.5 q-47 10 -94 18.5t-92 8.5q-78 0 -133 -35t-55 -88z" />
<glyph unicode="E" horiz-adv-x="1239" d="M16 369q0 131 55.5 251.5t144.5 225t204 191.5t235 153q-53 -6 -104 -6q-49 0 -94 7t-79 23.5t-54.5 44t-20.5 70.5q-2 16 3 35.5t16 42.5q33 74 97 135.5t143 105.5t166 67.5t167 23.5q39 0 80 -6q53 -10 84 -31t31 -35q0 -8 -17 -8q-35 0 -72.5 10t-76.5 10 q-88 0 -181.5 -30.5t-170 -76.5t-126 -102.5t-49.5 -107.5q0 -29 19.5 -48.5t52.5 -31.5t73 -17t81 -5q43 0 87 4t82.5 11t69.5 15t47 17v-2l15 6q4 2 10 2q16 0 26.5 -14.5t10.5 -30.5q0 -27 -29 -27q-141 -49 -287.5 -132t-264.5 -192.5t-192.5 -241.5t-74.5 -280 q0 -82 28.5 -140t78 -96t116 -56.5t141.5 -18.5q117 0 227.5 34t215 90t201 127t180.5 144q12 12 29.5 18.5t29.5 6.5q20 0 21 -12q0 -8 -21 -27q-92 -80 -196.5 -163t-219 -149.5t-237.5 -108.5t-252 -42q-84 0 -165 17.5t-144.5 59.5t-101.5 112.5t-38 177.5z" />
<glyph unicode="F" horiz-adv-x="999" d="M2 -51q0 84 18.5 166t45.5 135q33 68 85 138.5t120.5 138t151.5 130t175 111.5q23 188 31 376.5t10 375.5q-35 -16 -68.5 -34t-68.5 -36q-14 -8 -29 -8q-18 0 -30.5 9t-12.5 24q0 23 27 36q82 45 183 85t206.5 74t208 59.5t186.5 44t141.5 28.5t71.5 10q16 0 16 -8 q0 -20 -63 -37q-182 -47 -345 -92t-325 -110l4 -4q-2 -180 -8 -365.5t-22 -372.5q82 37 168 70t161.5 58.5t131 42t73.5 20.5q10 2 29 2q39 0 39 -17q0 -10 -51.5 -27.5t-136.5 -47t-194.5 -71.5t-228.5 -103q-20 -170 -52 -334t-83 -322q-20 -61 -49 -134t-72 -137.5 t-101 -107.5t-138 -43q-53 0 -92 21.5t-63.5 58.5t-37 87t-12.5 110zM72 -23q0 -102 36.5 -164.5t90.5 -62.5q70 0 124 58.5t96 147.5t70 195.5t46 202.5q16 82 29.5 164t23.5 168q-90 -53 -181.5 -130t-166 -170t-121.5 -197.5t-47 -211.5z" />
<glyph unicode="G" horiz-adv-x="1257" d="M4 520q0 25 2 49.5t8 46.5q25 113 73 220.5t111.5 208t139.5 191.5t158 171q59 57 126.5 117.5t143.5 107.5t159 78t171 31h26q35 -2 35 -21q0 -14 -20.5 -27.5t-46.5 -13.5h-23q-76 0 -151.5 -34.5t-146.5 -87t-133.5 -114t-109.5 -112.5q-57 -61 -106 -120.5t-94 -125 t-88 -143.5t-86 -176q-16 -39 -27.5 -91t-11.5 -108q0 -43 8 -84t26.5 -72.5t48 -50t72.5 -18.5q45 0 101 20q113 43 209 117t177 166t149.5 195.5t127.5 208.5q8 14 28.5 23t41.5 9q14 0 24.5 -7t10.5 -23v-4q-16 -150 -43 -311t-64 -320q80 41 165 76.5t177 62.5 q45 12 66 12q10 0 10 -4l-52 -27q-53 -26 -124.5 -61t-145 -72.5t-114.5 -62.5q-41 -166 -87 -318.5t-96 -279.5q-27 -70 -70.5 -134.5t-99 -114.5t-122 -80.5t-140.5 -30.5q-109 0 -161 47t-52 110q0 47 20.5 100.5t51.5 104.5t64.5 93t58.5 69q104 109 241.5 227.5 t305.5 222.5q27 119 45 237t35 238q-66 -96 -146 -190t-170 -173t-191.5 -136.5t-209.5 -81.5q-31 -8 -66 -8q-55 0 -97 23.5t-68.5 62.5t-40 89t-13.5 103zM297 -459q0 -90 106 -90q102 0 175 63.5t124.5 156.5t86 197.5t59.5 184.5q16 53 31.5 108.5t27.5 112.5 q-129 -92 -240.5 -193t-193.5 -200.5t-129 -187.5t-47 -152z" />
<glyph unicode="H" horiz-adv-x="1665" d="M2 -2q0 74 45 156t108.5 156.5t131 135t112.5 89.5q63 41 129 75.5t131 63.5q33 154 53.5 294t36 276t30 272.5t38.5 281.5q14 12 31 23q12 8 26.5 15t24.5 7q12 0 12 -14v-6q-43 -272 -72.5 -552t-78.5 -556q150 57 305.5 99t310.5 89q29 162 66 322.5t78 326.5 q20 14 39 27q16 10 32.5 18.5t26.5 8.5q8 0 8 -11v-6q-41 -162 -77 -324.5t-64 -328.5q92 29 183 63.5t177 77.5q18 10 45 9q35 0 35 -17q0 -12 -25.5 -28.5t-66.5 -36t-92 -39t-100.5 -37t-94.5 -31.5t-71 -23q-25 -166 -49.5 -325.5t-24.5 -327.5q0 -59 1 -132t10 -147.5 t28.5 -144t56.5 -121.5q6 -10 6 -18q0 -16 -15 -24.5t-34 -8.5q-12 0 -23.5 4t-17.5 15q-37 53 -58.5 117.5t-33.5 133t-15 137t-3 130.5q0 174 17 343t46 335q-154 -47 -305.5 -93.5t-298.5 -111.5q-6 -2 -11.5 -4t-9.5 -4q-10 -47 -26.5 -125t-43 -167t-66.5 -181.5 t-97 -166t-133 -120.5t-174 -47t-148.5 55t-50.5 123zM119 6q0 -59 30.5 -84.5t71.5 -25.5q68 0 121 36.5t93 89t66 107.5t38 90q31 80 56.5 172t45.5 189q-94 -47 -179 -105.5t-157 -140.5q-29 -31 -60.5 -70t-60 -81t-47 -87t-18.5 -90z" />
<glyph unicode="I" horiz-adv-x="407" d="M0 -6q37 141 70.5 306t62.5 334t52.5 336t43 313.5t32.5 266t22 195.5q2 2 10 2q16 0 40.5 -18.5t24.5 -36.5v-4q-4 -51 -16 -145.5t-29.5 -214.5t-37 -259t-41 -278.5t-41 -271.5t-37 -240.5t-29.5 -184.5t-16 -102q-16 -8 -34 -17.5t-34 -9.5q-27 0 -43 29z" />
<glyph unicode="J" horiz-adv-x="1406" d="M2 -322q0 129 71.5 237t182.5 195t245 154.5t261 116.5l47 186q76 295 111.5 590t72.5 600q18 6 37 15q16 6 32.5 11t31.5 5q25 0 24 -21q-41 -338 -94 -676.5t-150 -668.5q178 59 359.5 96t341.5 41q31 0 31 -8q0 -12 -60.5 -22.5t-164 -29t-239.5 -51t-286 -92.5 q-18 -59 -37.5 -116.5t-40.5 -114.5q-20 -53 -49 -122t-67.5 -138.5t-88 -136t-107.5 -117.5t-126 -83t-145 -32q-104 0 -148.5 52.5t-44.5 129.5zM111 -291q0 -70 46 -102.5t99 -32.5q39 0 72 16q76 43 139 120t113.5 174.5t90.5 207t70 217.5q-170 -76 -306 -166 t-202 -168q-45 -53 -83.5 -120.5t-38.5 -145.5z" />
<glyph unicode="K" horiz-adv-x="1501" d="M2 82q0 63 38 128.5t98.5 129t136 124t153.5 114t149.5 98.5t122.5 78l17 71q45 215 72.5 429t50.5 432q2 16 23.5 25t41.5 9q12 0 21.5 -4t9.5 -14v-4q-23 -217 -49.5 -434t-73.5 -435q78 53 185.5 133t226 185.5t240.5 240t229 295.5q4 8 18 16.5t31.5 14.5t36 10.5 t30.5 4.5q18 0 19 -11q0 -4 -2 -8q-90 -135 -192.5 -253t-217 -224.5t-237.5 -204.5t-252 -192l-101 -74q57 -258 162 -447.5t234 -321.5t274.5 -210t286.5 -111q33 -8 53.5 -25.5t20.5 -29.5q0 -10 -15 -10q-2 0 -4 1t-4 1q-152 25 -312.5 98.5t-308 197.5t-268.5 300 t-188 403l-4 -16q-29 -98 -69 -207t-99.5 -204t-141.5 -166.5t-194 -98.5q-29 -6 -53 -6q-37 0 -72 10t-62.5 31.5t-44 54.5t-16.5 76zM106 109q0 -72 38 -105t83 -33t92 29q78 49 136.5 124t101.5 163t71.5 185t51.5 190q-113 -74 -216.5 -145t-183 -139.5t-127 -135 t-47.5 -133.5z" />
<glyph unicode="L" horiz-adv-x="1449" d="M2 164q0 39 18.5 71.5t47 56t66.5 37t77 13.5q43 0 95 -14.5t108.5 -39t114 -57t112.5 -67.5q78 92 145.5 247.5t130 335t126 362.5t134 331.5t153.5 242t186 93.5q81 0 163 -70q2 0 -4 -4t-16 -8t-22.5 -7.5t-22.5 -3.5q-16 0 -23 7q-40 36 -78 36h-2q-47 0 -90 -42 t-83 -108.5t-73.5 -147t-61 -157.5t-48 -140.5t-31.5 -94.5q-61 -178 -110 -320.5t-96.5 -254t-97.5 -196.5t-113 -146q49 -35 104 -75t114.5 -77t120 -67.5t117.5 -44.5q92 -23 179.5 -32t158.5 -9q80 0 133.5 7t77.5 7q27 0 27 -6q0 -10 -32 -19.5t-77 -17.5t-95 -12 t-85 -4q-100 0 -198.5 15t-184.5 40q-113 33 -213 99.5t-213 139.5q-63 -47 -149 -81.5t-191 -34.5q-47 0 -100.5 11t-97.5 36.5t-72.5 67.5t-28.5 102zM96 147q0 -43 18.5 -70.5t47.5 -43.5q29 -18 63.5 -26.5t71.5 -8.5q68 0 141.5 26.5t139.5 79.5q-37 25 -81 52.5 t-91.5 51t-97.5 39t-99 15.5q-47 0 -80 -24.5t-33 -90.5z" />
<glyph unicode="M" horiz-adv-x="2400" d="M-18 1182v2q47 82 103 168t121.5 163.5t141.5 144t164 109.5q80 37 137 37q59 0 100.5 -33.5t66 -92t35.5 -137.5t11 -167q0 -106 -7 -195t-20.5 -170t-30 -160t-34.5 -165q8 27 21.5 62.5t31 76.5t36 84t34.5 84q8 20 29.5 67.5t50 104t64.5 116.5t75 109.5t79 81 t79 31.5q43 0 71.5 -28.5t45 -72.5t23.5 -97.5t9 -104.5q1 -34 1 -64v-30q-1 -43 -1 -64q0 -172 -13 -339.5t-34 -337.5q55 100 112.5 205.5t116 191.5t116 141t110.5 55q45 0 88 -51q23 -29 37 -100.5t23.5 -163.5t14.5 -195.5t8 -194.5t4 -159.5t5 -91.5q4 -41 24.5 -56.5 t49.5 -15.5q35 0 78 18.5t84 44t75 54.5t52 49q8 10 32.5 15.5t44.5 5.5q25 0 25 -8q0 -4 -4 -9q-27 -31 -67 -60.5t-82 -54t-79.5 -43t-60.5 -26.5q-12 -4 -33.5 -11t-47 -13.5t-54.5 -11.5t-53 -5q-43 0 -63.5 19.5t-28 47t-7.5 59.5v56v78t-1 155t-6 190.5t-15 186.5 t-28.5 141t-47.5 56q-31 0 -73 -48t-88 -123t-93 -168t-88 -184t-72.5 -170t-48.5 -126q-4 -12 -31.5 -23.5t-50.5 -11.5q-25 0 -24 15v4q20 141 36.5 282.5t28.5 284.5q4 47 10.5 111.5t11.5 137.5t9 148.5t4 147.5q0 59 -3 111.5t-12.5 90t-23.5 60t-37 22.5 q-29 0 -66.5 -52t-82.5 -138t-94.5 -199.5t-98.5 -234.5t-94 -244t-83 -227.5t-65.5 -184t-39.5 -116.5q-4 -12 -32 -23.5t-50 -11.5q-25 0 -25 16q0 29 9.5 66t19.5 67q18 59 53 183.5t71 292t64.5 367.5t32.5 411q0 31 -4 89t-20.5 116.5t-47 102.5t-84.5 44 q-31 0 -61 -14q-74 -35 -141.5 -93.5t-127 -131t-110.5 -150.5t-94 -152q-4 -6 -15.5 -11t-25.5 -9t-27.5 -6t-21.5 -2h-4q-2 0 -2 2z" />
<glyph unicode="N" horiz-adv-x="2056" d="M2 1513q0 4 12 15q61 47 135 98t155 94t165 71t168 28q61 0 102 -30t65.5 -77t37 -103.5t16.5 -111.5t4 -101v-71q0 -184 -28.5 -365.5t-71.5 -363.5q72 147 149.5 287.5t169.5 273.5q16 25 54.5 75t87.5 101t103 89t104 38q55 0 88.5 -48t53 -118.5t28 -148.5t12.5 -137 q10 -139 12 -276.5t6 -276.5q1 -39 1 -84t-1 -95v-30q0 -85 10 -164q12 -92 45 -155.5t105 -63.5q45 0 96 19.5t102.5 46t97.5 56.5t81 48q20 10 49 10q23 0 22 -8q0 2 -24.5 -15.5t-66.5 -45t-95 -59.5t-111.5 -60.5t-117 -47t-109.5 -18.5q-78 0 -116.5 56.5t-54 137 t-15.5 171v157.5q-1 35 -1 92v62v70q0 72 -1 153q-2 121 -9.5 246t-22.5 228.5t-39.5 169t-63.5 65.5q-27 0 -57.5 -25.5t-61.5 -61.5t-58.5 -76t-46.5 -69q-172 -281 -302 -560t-247 -568q-6 -14 -31.5 -24.5t-47.5 -10.5q-27 0 -27 16v5q43 164 87 332.5t81 338.5 t59.5 341t22.5 341q0 59 -8.5 128t-28.5 128.5t-53 99.5t-84 40q-53 0 -115.5 -25t-128 -62.5t-129 -83t-117.5 -85.5q-10 -6 -28.5 -10.5t-34.5 -4.5q-33 0 -33 12z" />
<glyph unicode="O" horiz-adv-x="1019" d="M4 463q0 137 40 278.5t101.5 277.5t138 263t150.5 238q8 10 29.5 17t42.5 7q29 0 29 -12q0 -2 -5 -10q-78 -115 -154.5 -245t-137 -267.5t-98.5 -278.5t-38 -278q0 -92 22.5 -166t62.5 -124t94.5 -77t117.5 -27q78 0 144.5 37t120 99.5t93.5 144.5t67.5 169t41 175 t13.5 164q0 150 -30 271.5t-87 222t-141 182.5t-193 151q-4 4 -4 6q0 10 28.5 23.5t51.5 13.5q8 0 20 -4q223 -141 342 -347t119 -474q0 -86 -15.5 -185.5t-47 -198.5t-81.5 -190.5t-120 -161t-160 -111.5t-203 -42q-86 0 -152.5 34t-110.5 95.5t-67.5 145t-23.5 184.5z" />
<glyph unicode="P" horiz-adv-x="1007" d="M2 27q0 49 21 100q66 158 183.5 264.5t268.5 181.5q14 94 24.5 216t16.5 249t9 245t3 204q0 29 -1 53.5t-1 42.5q-72 35 -132 61t-101 42q-23 8 -23 22q0 16 21.5 32.5t44.5 16.5q10 0 16 -2q78 -27 171 -68.5t188.5 -95t183.5 -117t156.5 -136t110.5 -151.5t42 -163 q0 -70 -35.5 -125t-93 -100t-130.5 -82t-144.5 -66.5t-136 -54.5t-107.5 -47q-23 -131 -61 -256q-18 -59 -49 -134t-75 -140.5t-103.5 -110.5t-137.5 -45q-66 0 -97.5 50t-31.5 114zM90 27q0 -41 18.5 -70t53.5 -29q20 1 45 13q63 33 107 105.5t73 157.5t46.5 166t27.5 130 q-104 -59 -189.5 -140t-138.5 -194q-16 -35 -29.5 -69t-13.5 -70zM567 616q66 27 143.5 55.5t150.5 64.5t132 80t86 99q25 51 25 105q0 72 -41 142.5t-107.5 135t-151.5 123t-171 107.5q0 -227 -17.5 -459.5t-48.5 -452.5z" />
<glyph unicode="Q" horiz-adv-x="1126" d="M4 457q0 139 41 280.5t106.5 277.5t146.5 264t159 241q8 10 30.5 17t42.5 7q29 0 29 -12q0 -2 -4 -10q-80 -117 -160 -247t-143.5 -268.5t-103 -278.5t-39.5 -277q0 -92 23.5 -166t64.5 -125t97 -79t124 -28q47 0 100 17q-41 47 -75.5 93t-59.5 93q-2 2 -2 6 q0 14 22.5 24.5t45.5 10.5q14 0 32.5 -20.5t39 -49t41 -60.5t38.5 -56q86 57 146.5 142t99.5 183.5t57.5 203.5t18.5 204q0 152 -31 274.5t-91.5 223t-148.5 182.5t-200 151q-4 4 -5 6q0 10 29 23.5t55 13.5q8 0 21 -4q233 -141 358 -347t125 -474q0 -104 -22.5 -224 t-69.5 -235t-123 -212t-180 -154q86 -98 191.5 -169t222.5 -81q20 -2 20 -11q0 -14 -27.5 -28.5t-46.5 -14.5q-117 18 -232.5 93t-211.5 174l-16 -6q-86 -27 -164 -27q-90 0 -159 34t-116 95t-71.5 145t-24.5 185z" />
<glyph unicode="R" horiz-adv-x="1378" d="M2 35q0 59 36 120.5t93 122t129 118t145.5 107.5t141 93t117.5 74q20 117 37.5 213t30.5 188t25.5 187.5t24.5 205.5q2 14 22.5 24.5t41.5 10.5q29 0 28 -22q-10 -104 -20 -200.5t-22.5 -189t-29 -183.5t-36.5 -185l2 -2q66 31 143.5 61.5t155.5 62t150.5 67.5t129 79 t90 95.5t33.5 115.5q0 82 -88 156q-90 72 -191 119t-209 83.5t-217.5 69.5t-211.5 76q-18 8 -18 20q0 14 16 25.5t35 11.5q10 0 14 -2q127 -53 257 -90t259 -88q66 -27 142.5 -60.5t143 -80.5t112 -108.5t45.5 -141.5q0 -68 -40 -126t-104.5 -108.5t-146.5 -92.5t-168 -79 t-168 -68.5t-146 -58.5q57 -238 154.5 -413.5t219.5 -297.5t257.5 -193.5t268.5 -102.5q31 -8 49 -25.5t18 -28.5q0 -8 -12 -8h-6q-143 23 -296 93.5t-292 188.5t-253 282.5t-177 379.5q-4 -8 -4 -14q-29 -94 -67 -196.5t-93 -192.5t-133 -156.5t-184 -91.5q-25 -6 -52 -6 q-35 0 -67.5 10.5t-58 29.5t-41 50t-15.5 72zM100 61q0 -68 36 -100.5t79 -32.5t88 29q74 47 128 117.5t94 154.5t69 175.5t49 179.5q-104 -72 -202.5 -137.5t-174.5 -130t-121 -128t-45 -127.5z" />
<glyph unicode="S" horiz-adv-x="972" d="M2 -340q0 53 30.5 96t76 79t96.5 63.5t90 48.5q66 35 128 65.5t126 59.5q-14 125 -61.5 257t-108 266t-125 269t-113.5 266q-25 66 -45 139.5t-20 147.5q0 100 43 170t110.5 114t149.5 63.5t160 19.5q90 0 183 -20.5t175 -61.5t145.5 -106.5t94.5 -153.5v-4 q0 -10 -11.5 -15.5t-25.5 -5.5q-16 0 -31.5 6.5t-19.5 18.5q-23 61 -78.5 115.5t-129 94.5t-157.5 63.5t-162 23.5q-66 0 -128 -14.5t-111.5 -49.5t-80 -93t-30.5 -146q0 -72 20.5 -150t51 -156.5t66.5 -154.5t67 -144q37 -84 79 -172t79.5 -178t66.5 -182t41 -184 q106 51 215 107.5t227 133.5q14 8 37 9q18 0 19 -9q0 -6 -19 -18q-145 -92 -256.5 -153.5t-218.5 -114.5q0 -10 1 -19.5t1 -19.5q0 -90 -39 -183.5t-105.5 -169t-154.5 -123t-184 -47.5q-31 0 -59.5 8.5t-52 26t-38 46t-14.5 71.5zM96 -322q0 -51 34 -82.5t79 -31.5 q27 0 56.5 10t57 26.5t51.5 35t40 36.5q74 78 105.5 161t31.5 171v19q-47 -23 -96 -49.5t-103 -55.5q-35 -18 -79 -40.5t-83.5 -51.5t-66.5 -65.5t-27 -82.5z" />
<glyph unicode="T" horiz-adv-x="950" d="M2 1475q0 12 10.5 25t24.5 24.5t29.5 19.5t27.5 8q176 10 348 44t343 73t343 73t349 44h8q26 0 26 -11q0 -9 -9 -19.5t-21.5 -20t-26.5 -16.5t-27 -7q-182 -10 -336.5 -40t-299.5 -64q-16 -229 -39 -456.5t-66 -455.5q-23 -111 -53.5 -238.5t-70.5 -236t-87 -181.5 t-98 -73q-16 0 -26.5 5t-10.5 16q0 12 8 22q49 66 90 157t75 199.5t60.5 228.5t47.5 243q16 102 31.5 194t27.5 182.5t22.5 181.5t18.5 193q-164 -41 -321.5 -77.5t-338.5 -53.5l-24 -4q-35 2 -35 21z" />
<glyph unicode="U" horiz-adv-x="1814" d="M2 1636q0 12 29 27q219 100 371.5 160.5t263.5 60.5q98 0 136 -50t38 -142q0 -55 -11.5 -122t-27 -140.5t-32.5 -150.5t-32 -153q-25 -141 -57.5 -277t-56.5 -276q-4 -29 -12.5 -66.5t-16.5 -80.5t-14.5 -89t-6.5 -89q0 -31 5.5 -62.5t15.5 -57.5t28.5 -43t43.5 -17 q37 0 84 35.5t97 91t100 122t93 129t74 111.5t43 72q147 266 250 555q6 23 12 51.5t23 50.5l2 8h2q10 12 25.5 20.5t37.5 8.5q25 0 25 -12q0 -2 -1 -3t-1 -3h2l-2 -2q-2 -10 -7 -23.5t-5 -22.5q-29 -96 -58.5 -216.5t-52.5 -252t-37 -265.5t-14 -255q0 -37 -1 -81v-10 q0 -39 7 -71q8 -36 28.5 -61t63.5 -25q66 0 174.5 52.5t255.5 171.5q8 8 22.5 12t24.5 4q16 0 17 -10l-26 -24q-26 -23 -67.5 -57t-97 -74t-117 -74.5t-125 -57t-118.5 -22.5q-86 0 -117 69.5t-31 218.5q0 109 13.5 233t31.5 234q-8 -12 -10 -18q-72 -131 -158 -252 t-175 -214t-175 -149.5t-155 -56.5q-43 0 -71 21.5t-44 54.5t-22.5 73t-6.5 76q0 129 33 302.5t76 361.5t85 376.5t60 348.5q2 10 2 21.5v21.5q0 45 -12 73.5t-32.5 45t-45 22.5t-51.5 6q-37 0 -68.5 -7t-46.5 -11q-88 -25 -184 -67t-225 -99q-20 -8 -31 -8q-16 0 -26.5 5 t-10.5 13z" />
<glyph unicode="V" horiz-adv-x="921" d="M2 1524q-2 10 20.5 18t45.5 8q33 0 32 -18v-94q0 -84 1 -178.5t3 -192.5t6.5 -197.5t8.5 -191.5q2 -66 5 -144.5t13 -158.5t34 -154t69 -129q43 20 85 59t78.5 84.5t68.5 90.5t54 80q72 109 138.5 225.5t123.5 232.5q123 248 222.5 484.5t191.5 496.5q16 6 31 13 q12 4 25.5 8t23.5 4q14 0 14 -8q0 -2 -1 -3t-1 -4q-115 -299 -239.5 -601t-280.5 -580q-72 -127 -149.5 -247t-171.5 -230q-23 -25 -49.5 -56.5t-58.5 -59.5t-65.5 -47.5t-68.5 -19.5q-23 0 -37 13q-53 55 -83 129.5t-43 156.5t-17 166t-8 156q-10 223 -15.5 444.5 t-5.5 444.5z" />
<glyph unicode="W" horiz-adv-x="2224" d="M2 1298q57 68 131 125.5t155 98.5t165 64.5t161 23.5q86 0 141.5 -42t55.5 -155q0 -45 -5 -89t-9 -75q-14 -131 -39 -262t-47.5 -262t-40 -263t-17.5 -265q0 -53 14.5 -99.5t32.5 -46.5q25 0 58 25.5t67.5 64.5t67.5 84t59 84q111 164 212.5 337t203.5 343q6 8 38 18.5 t52 10.5q12 0 12 -6q-8 -76 -12 -151t-4 -150q0 -88 6 -174q2 -47 9.5 -125t30 -153t70.5 -129t134 -54q23 0 46.5 5t45.5 19q80 47 139.5 136.5t101.5 197t69.5 222t43.5 216.5q12 72 21.5 150t15.5 155.5t10.5 153.5t4.5 142q0 96 -9.5 164.5t-29.5 91.5q-2 2 -2 6 q0 14 22.5 28.5t38.5 18.5q29 0 44 -91.5t15 -246.5q0 -84 -5 -179.5t-17 -196.5t-30.5 -202.5t-43.5 -197.5t-65.5 -210t-105 -214.5t-155 -167t-214.5 -66.5q-92 0 -149.5 56.5t-90.5 145.5t-45 200.5t-12 220.5q0 98 6 184q-78 -129 -158 -254t-166 -248 q-35 -49 -73.5 -103t-84 -101.5t-96.5 -78t-108 -30.5q-66 0 -92.5 50t-26.5 169q0 111 15.5 222.5t36 222t43 221t36.5 219.5q8 59 17.5 124.5t9.5 131.5q0 104 -33 155.5t-105 51.5q-59 0 -128.5 -28t-136 -67.5t-121 -81.5t-79.5 -73q-12 -12 -41.5 -17.5t-48.5 -5.5 q-12 0 -12 2z" />
<glyph unicode="X" horiz-adv-x="1042" d="M2 12q0 6 6 13q106 152 213 301t211 301q-98 287 -162.5 579.5t-99.5 595.5q0 14 26.5 24.5t51.5 10.5q20 0 20 -8q35 -281 88.5 -560.5t139.5 -551.5q115 166 227 331.5t227 331.5q8 10 27.5 17.5t38.5 7.5q12 0 21.5 -3t9.5 -11q0 -4 -5 -13q-129 -193 -258 -379 t-260 -374q29 -86 63 -168t68 -162q33 -74 73 -159t88 -170t104.5 -165t124 -144.5t146.5 -109.5t171 -59q6 0 6 -4q0 -10 -26.5 -21.5t-43.5 -11.5q-127 20 -232 99t-190 186.5t-152 228.5t-116 225q-41 86 -76.5 172.5t-68.5 176.5q-92 -129 -182.5 -258t-182.5 -258 q-8 -10 -28.5 -16.5t-36.5 -6.5q-12 0 -21.5 3t-9.5 9z" />
<glyph unicode="Y" horiz-adv-x="1822" d="M2 1569q0 4 10 14q127 106 278.5 176t317.5 70q74 0 121 -14.5t74.5 -43t39 -73.5t11.5 -109q0 -84 -14.5 -166t-22.5 -131q-23 -145 -49.5 -288.5t-26.5 -288.5q0 -98 41 -142.5t101 -44.5q59 2 123.5 32t107.5 61q94 70 174 153.5t148.5 178t125 196.5t105.5 207 q4 12 29.5 21t46.5 9q23 0 22 -10v-4q-45 -135 -76.5 -271t-60.5 -274.5t-57.5 -274.5t-67.5 -271q100 41 198.5 80.5t190.5 89.5q8 4 20.5 6t24.5 2q14 0 24.5 -3t10.5 -7q0 -10 -20 -19q-111 -59 -228.5 -106.5t-234.5 -94.5q-29 -96 -67 -188t-87 -184q-43 -80 -100 -170 t-128 -166t-155 -125t-182 -49q-72 0 -126 42t-54 140q0 51 19.5 101.5t48 97.5t64.5 88t71 73q129 123 285.5 204t322.5 149l8 22q57 186 91 374.5t75 379.5q-55 -88 -120.5 -167t-141.5 -144q-35 -31 -90.5 -73t-119 -80t-132 -64.5t-131.5 -26.5q-59 0 -99.5 23.5 t-65 63.5t-34.5 91t-10 109q0 68 10 138t23.5 138t28 127t20.5 102q10 72 24.5 147t14.5 150q0 133 -49.5 186.5t-131.5 53.5q-61 0 -130.5 -23.5t-136 -58.5t-123 -72.5t-89.5 -64.5q-8 -6 -26.5 -10t-34.5 -4q-29 0 -29 10zM688 -436q0 -66 35 -113t92 -47q37 1 72 21 q98 55 175 142t136 189.5t105.5 215t80.5 216.5q-94 -39 -183 -82t-173 -96q-47 -31 -106.5 -79t-111.5 -108.5t-87 -127t-35 -131.5z" />
<glyph unicode="Z" horiz-adv-x="1165" d="M2 12q0 2 4 15q100 215 224 415.5t252 399t254 397.5t231 410q-8 0 -15.5 1t-15.5 1q-98 0 -206.5 -20.5t-217.5 -55.5t-213.5 -80t-194.5 -94q-4 -4 -16 -4q-16 0 -35.5 7t-19.5 17q0 16 26 31q139 76 291 130t305 89q68 16 142.5 31.5t148.5 15.5q16 0 39 -1t44.5 -5 t36.5 -11t15 -20v-4q-23 -76 -63.5 -147.5t-81.5 -136.5q-94 -158 -194.5 -312.5t-202 -310.5t-197.5 -313.5t-180 -323.5q131 78 278.5 143.5t295 117.5t287.5 90t257 63q37 6 55 6q27 0 27 -10t-22.5 -24.5t-49.5 -20.5q-313 -74 -623.5 -189.5t-576.5 -302.5 q-18 -14 -53 -14q-14 0 -24.5 5t-10.5 15z" />
<glyph unicode="a" horiz-adv-x="1042" d="M2 119q0 72 50 157.5t125 161.5t160 126t157 50q68 0 104 -49q6 16 23.5 43t52.5 27q25 0 35 -12q-4 -20 -22.5 -65.5t-39 -103t-37 -119t-16.5 -112.5q0 -111 36 -154.5t91 -43.5q49 0 107.5 27.5t115.5 66.5t108.5 81.5t84.5 73.5q10 10 25.5 14.5t29.5 4.5 q22 0 22 -11q0 -9 -12 -22q-41 -39 -106.5 -91t-140 -98t-150.5 -79t-139 -33q-55 0 -88 23.5t-51.5 62.5t-24.5 88t-6 98q-16 -12 -60.5 -49t-103 -75.5t-120.5 -69.5t-112 -31q-41 0 -69.5 28.5t-28.5 84.5zM117 141q0 -43 37 -43q23 0 60.5 17.5t94.5 58.5q25 18 63 51 t72.5 76t63.5 91t35 97q-27 66 -84 66q-53 0 -113.5 -48t-111 -114.5t-84 -137.5t-33.5 -114z" />
<glyph unicode="b" horiz-adv-x="774" d="M2 -49q0 4 2 8q14 53 47 167t75 264.5t90 325.5t94 351t87 339t68 290l24 12q10 4 21.5 9t21.5 5q18 0 19 -16q0 -27 -27.5 -147.5t-71.5 -298t-99.5 -390.5t-112.5 -424l55 52q23 20 55.5 43.5t70.5 43t79 33t78 13.5q70 0 109.5 -44t39.5 -104q0 -37 -13.5 -77.5 t-34 -78.5t-48 -71t-53.5 -55q-55 -45 -106.5 -78t-106 -55.5t-115 -39t-131.5 -28.5q-14 -29 -26.5 -48.5t-59.5 -19.5q-12 0 -21.5 4.5t-9.5 14.5zM135 59q98 14 187.5 57.5t157 104t107.5 132t40 145.5q0 29 -17.5 53t-44.5 24q-20 0 -46.5 -11t-65.5 -38 q-186 -123 -269 -293q-12 -45 -25.5 -89t-23.5 -85z" />
<glyph unicode="c" horiz-adv-x="735" d="M63 195q0 43 12.5 87t32 87t45 81.5t52.5 69.5q53 63 101 88t93 25q25 0 50.5 -7.5t47 -18.5t36 -23.5t14.5 -24.5q0 -8 -2 -10q-4 -8 -8 -14q-10 -14 -21 -15q-10 0 -40 19.5t-70 19.5q-25 0 -49.5 -8t-51.5 -31q-8 -6 -30.5 -26.5t-47 -56.5t-43 -88t-18.5 -126 q0 -66 32.5 -107.5t110.5 -45.5q74 0 148.5 18t147.5 52t140.5 79t124.5 98h2q6 0 13.5 -6t7.5 -12q0 -4 -2 -6q-35 -37 -103.5 -90t-153.5 -101.5t-177 -82t-174 -33.5q-94 0 -157 57t-63 152z" />
<glyph unicode="d" horiz-adv-x="1107" d="M2 117q0 47 22.5 99t60.5 102.5t87 96.5t102.5 80.5t105.5 55t97 20.5q51 0 84 -26q18 59 36.5 125.5t35 130t32 116t25.5 80.5q47 129 104.5 269.5t135.5 257.5q20 31 42.5 64.5t50.5 61t62.5 46t79.5 18.5q49 0 68.5 -34.5t19.5 -90.5q0 -49 -12 -111.5t-31.5 -125 t-42 -119.5t-41.5 -98q-43 -98 -98 -202t-120.5 -205t-139.5 -195.5t-154 -174.5q-2 -18 -2 -40.5v-45.5q0 -70 13.5 -118t35 -76.5t50 -41.5t57.5 -13q45 0 97.5 22.5t102.5 56t94 72.5t77 70q23 18 55 18q23 0 23 -12q0 -8 -13 -21q-41 -39 -96 -87t-118.5 -91 t-132.5 -71.5t-134 -28.5q-57 0 -100 21.5t-71 58.5t-42 87t-14 107l-39 -30q-18 -14 -60.5 -46t-94.5 -64t-107.5 -56.5t-98.5 -24.5q-41 0 -67.5 29.5t-26.5 83.5zM117 129q0 -39 33 -39q23 0 61.5 18.5t97.5 61.5q51 37 99.5 78t95.5 86q4 27 8 51.5t8 50.5 q-14 37 -34.5 52.5t-47.5 15.5q-47 0 -103 -44t-104.5 -105.5t-81 -125t-32.5 -100.5zM633 473q59 70 114.5 153t106.5 172t96 177t82 166t77 183.5t65 203.5q6 25 6 47q0 35 -12.5 56.5t-34.5 21.5q-14 0 -33 -12.5t-37.5 -33t-34.5 -44t-29 -43.5q-82 -145 -144.5 -300 t-115.5 -313q-12 -41 -26.5 -95t-28.5 -113.5t-26.5 -118t-24.5 -107.5z" />
<glyph unicode="e" horiz-adv-x="692" d="M2 254q0 80 26.5 148.5t66.5 120.5t87 82t88 30t63.5 -22.5t22.5 -57.5q0 -43 -37 -104q-14 -23 -48.5 -59t-70.5 -70.5t-63.5 -60t-27.5 -30.5q0 -20 9 -47.5t27.5 -53.5t47 -43t69.5 -17q68 0 138.5 23.5t136 59t124 77.5t99.5 77q4 4 10 4q8 0 16.5 -7t8.5 -13 q0 -4 -2 -4q-43 -41 -106.5 -90.5t-138.5 -93.5t-157 -73.5t-162 -29.5q-72 0 -115.5 27.5t-67 64.5t-32 74t-10.5 55q-2 10 -2 33zM102 287q31 27 64 62.5t61 66.5q8 8 19.5 23.5t22 34t18.5 36.5t8 33q0 12 -6 18q-10 10 -29 10q-29 0 -51.5 -20.5t-39.5 -48t-29.5 -57 t-18.5 -46.5q-10 -23 -13.5 -53.5t-5.5 -58.5z" />
<glyph unicode="f" horiz-adv-x="815" d="M-334 -543q0 66 18.5 132.5t43.5 113.5q59 115 117.5 204t122 161.5t137 136t165.5 125.5l9 26q23 84 48 188.5t55 218.5t63.5 230.5t72.5 225t86.5 203.5t102.5 167q45 55 99 83t107 28q74 0 128.5 -53.5t54.5 -161.5q0 -23 -8.5 -38t-38.5 -15q-16 0 -29.5 8t-13.5 24 v23q0 72 -31 112.5t-78 40.5q-53 0 -98 -45t-81 -107.5t-63.5 -131t-44.5 -117.5q-27 -78 -58.5 -192.5t-64 -236.5t-62.5 -236.5t-50 -194.5q135 55 232.5 86t163 46t99 19.5t39.5 4.5q16 0 17 -19q0 -20 -37 -27.5t-109.5 -25t-180 -55t-249.5 -117.5q-12 -41 -29.5 -121 t-41 -177t-53 -203.5t-65.5 -203t-81 -173.5t-96 -113q-33 -23 -70 -36.5t-72 -13.5q-47 0 -80.5 16.5t-55 45.5t-31 66.5t-9.5 78.5zM-254 -537q0 -47 15.5 -80.5t62.5 -33.5q29 0 62.5 17.5t72.5 58.5q33 33 62.5 97t58.5 142t54.5 164t46 164t35.5 140.5t26 94.5 q-4 -4 -37 -26.5t-80 -65.5q-53 -49 -118.5 -128t-124 -170t-97.5 -188.5t-39 -185.5z" />
<glyph unicode="g" horiz-adv-x="837" d="M-74 -672q0 113 44 219.5t114 201.5t151.5 178t159.5 149q10 41 23.5 83t25.5 83q-59 -76 -145 -138q-14 -10 -37.5 -24t-51.5 -26.5t-57.5 -20.5t-56.5 -8q-29 0 -51.5 12t-32.5 45q-6 20 -6 47q0 51 24.5 106.5t64.5 107.5t92.5 100.5t106.5 84t106.5 56t95.5 20.5 q25 0 49 -10q0 23 14 38t49 15q16 0 27.5 -6t11.5 -18v-7q-29 -115 -65.5 -224t-67.5 -222q92 70 187.5 130t197.5 118q12 8 28.5 12t28.5 4q16 0 17 -8q0 -6 -23 -18q-250 -141 -461 -332q-35 -141 -69.5 -280.5t-69.5 -282.5q-14 -61 -39.5 -127t-60.5 -119t-79 -87 t-93 -34q-80 0 -116 55.5t-36 126.5zM-6 -657q0 -63 16.5 -91t40.5 -28q25 0 55.5 22.5t60.5 62.5t55.5 94t43.5 118q16 57 26.5 104t18.5 91t17.5 89t23.5 103l13 51q-55 -53 -120 -121.5t-121 -148.5t-93 -167t-37 -179zM100 156q0 -29 10.5 -40.5t26.5 -11.5 q29 0 59.5 19.5t41.5 26.5q109 72 177 157.5t105 196.5q8 23 10 39q-16 16 -36 16q-31 0 -73 -23.5t-84 -57.5t-79 -71.5t-57 -64.5q-12 -16 -29.5 -37.5t-33 -46.5t-27 -51.5t-11.5 -50.5z" />
<glyph unicode="h" horiz-adv-x="1019" d="M2 18q0 2 1 3.5t1 3.5q16 82 47 204.5t68 269t80 305.5t85 309.5t79.5 285.5t68.5 233q2 10 13.5 24.5t25.5 28t27.5 22.5t21.5 9q6 0 6 -6v-4q-12 -90 -65 -276.5t-139 -501.5q-23 -80 -42.5 -165t-37 -162t-31.5 -140.5t-25 -102.5q25 39 51.5 81t57.5 78t66.5 59.5 t82.5 23.5q43 0 67 -23.5t38 -61.5t24.5 -85t26.5 -92q14 -37 32.5 -79t44 -77t58.5 -57.5t76 -22.5q33 0 67.5 12.5t67.5 29t62.5 35t52.5 30.5q25 14 35 14q6 0 6 -6q2 -8 -29 -33q-80 -66 -152.5 -106.5t-140.5 -40.5q-66 0 -125 41t-112 135q-18 31 -34.5 83t-32 102.5 t-31 87t-33.5 36.5t-39 -28q-78 -106 -150.5 -225t-122.5 -242q-4 -12 -24.5 -20.5t-38.5 -8.5q-14 0 -24.5 5t-10.5 15z" />
<glyph unicode="i" horiz-adv-x="620" d="M4 180q0 55 11.5 115.5t25.5 116t29.5 99.5t21.5 69q4 16 24.5 29.5t37.5 13.5q14 0 14 -13q0 -2 -1 -3t-1 -5q-6 -25 -18.5 -69t-25.5 -97t-22.5 -110.5t-9.5 -108.5q0 -70 23.5 -116t85.5 -46q47 0 99 16.5t106.5 42t106.5 58.5t97 64q32 22 58 22h2q12 0 12 -8 q0 -10 -18 -27q-55 -47 -115 -90t-122.5 -75.5t-124.5 -52t-120 -19.5q-102 0 -139 54t-37 140zM123 811q0 35 27.5 67.5t68.5 32.5q12 -2 21.5 -9t9.5 -23q0 -41 -31 -69t-63 -28q-9 0 -13 2q-20 4 -20 27z" />
<glyph unicode="j" horiz-adv-x="757" d="M-197 -592q0 27 11.5 103.5t57.5 177t139 213t255 211.5q14 63 30.5 128.5t32 124t29 106.5t19.5 81q16 35 37.5 49t36.5 14q16 0 16 -10l-121 -446q154 74 266.5 110.5t184.5 46.5h10q27 0 27 -10q0 -12 -34 -22.5t-98.5 -34t-157.5 -67.5t-214 -124 q-29 -141 -53.5 -266t-57.5 -264q-14 -61 -40.5 -123.5t-62.5 -114t-78 -84t-89 -32.5q-43 0 -71 20.5t-44 54t-23.5 75.5t-7.5 83zM-139 -594q0 -78 19.5 -113.5t51.5 -35.5q25 0 53.5 20.5t57.5 58t54.5 93t41.5 125.5q14 57 24.5 101t20 85t17.5 84t20 100q2 14 6 41 t9 39q-29 -12 -91.5 -64.5t-125 -133t-110.5 -184t-48 -216.5zM426 782q0 35 25.5 66t66.5 31q12 0 21.5 -7.5t9.5 -21.5q0 -41 -30 -67.5t-62 -26.5q-9 0 -13 2q-18 2 -18 24z" />
<glyph unicode="k" horiz-adv-x="835" d="M20 12q41 184 94.5 360.5t96.5 360.5q23 98 40 175t32.5 142.5t27 128t22.5 131t21.5 151.5t22.5 192q4 16 34.5 32.5t47.5 16.5q6 0 6 -4q-29 -242 -69 -476.5t-87 -471.5q-18 -102 -45 -197q96 51 189.5 111.5t160.5 138.5h7q4 0 7 1t7 1q10 0 20.5 -3t10.5 -11 t-13 -23q-82 -92 -178 -171t-203 -138q51 -72 119 -136.5t150 -117.5t179 -93.5t206 -60.5q45 -8 45 -26q0 -14 -35 -15h-8q-96 8 -196.5 38t-196 76t-178.5 107.5t-144 135.5q-25 -86 -49.5 -170t-42.5 -170q-4 -12 -24.5 -17.5t-41.5 -5.5q-35 0 -35 8z" />
<glyph unicode="l" horiz-adv-x="622" d="M2 240v19.5t2 19.5q8 88 29.5 192t48.5 206.5t53.5 191.5t48.5 147q47 129 103.5 268t132.5 256q20 31 42.5 64.5t50.5 60.5t61.5 44t76.5 17q49 0 68.5 -34.5t19.5 -87.5q0 -49 -13 -110.5t-31.5 -124t-40 -120t-40.5 -98.5q-43 -96 -97 -199.5t-118.5 -204 t-137.5 -194.5t-150 -172q-2 -18 -3.5 -42t-1.5 -46q0 -68 13.5 -115t35 -76.5t48 -42t55.5 -12.5q43 0 90 20.5t94 50t91.5 65.5t81 66t64.5 50t42 20q10 0 10 -8q0 -12 -24.5 -41.5t-64.5 -66.5t-92 -77t-109.5 -74t-115 -55.5t-106.5 -21.5q-106 0 -161.5 72t-55.5 193z M129 494q59 70 113.5 152.5t103.5 170.5t93 175t81 165q37 80 77 183.5t62 201.5q6 25 7 47q0 35 -12.5 56.5t-35.5 21.5q-14 0 -31.5 -13.5t-36 -32.5t-33.5 -43t-28 -44q-82 -145 -143.5 -297.5t-112.5 -310.5q-12 -39 -26 -93.5t-27.5 -114t-27 -118.5t-23.5 -106z" />
<glyph unicode="m" horiz-adv-x="1624" d="M4 -37q18 90 37.5 175t36 169t31 169t24.5 177q2 18 27.5 40t42.5 22q10 0 10 -13q-18 -197 -49 -395q72 100 125 159.5t94 90.5t71.5 40t57.5 9q43 0 69.5 -25.5t44 -68.5t28 -97.5t17.5 -110.5t14 -109.5t20 -94.5q6 0 24.5 27t42 61.5t48 71.5t40.5 57q25 33 53.5 72 t60.5 73t66.5 56.5t73.5 22.5q31 0 48.5 -31t29.5 -76t25.5 -99t36 -99.5t59.5 -76t98 -30.5q59 0 116.5 26.5t104.5 53.5q12 6 30.5 10t33.5 4q16 0 16 -6q0 -4 -20 -16q-80 -45 -168 -84t-168 -39q-68 0 -124 37t-93 133q-20 51 -36 102t-34 105q-10 0 -24.5 -10.5 t-29 -24.5t-26.5 -29.5t-18 -23.5q-35 -43 -61.5 -80t-53.5 -76t-55.5 -82t-67.5 -96q-10 -14 -31.5 -21.5t-39.5 -7.5q-27 0 -33 12q-27 41 -38 94.5t-18.5 109.5t-11.5 109.5t-13 96.5t-27.5 68.5t-53.5 25.5q-20 0 -46 -15.5t-56 -49.5q-55 -61 -102.5 -132t-82.5 -137.5 t-55.5 -121t-20.5 -84.5q0 -16 -24.5 -26.5t-46.5 -10.5q-29 0 -29 16v4z" />
<glyph unicode="n" horiz-adv-x="1210" d="M2 -39q0 2 1 3t1 3q20 68 44 161t45.5 188.5t37 181.5t19.5 137q14 16 26 31q10 12 22.5 22t18.5 10q4 0 4 -6q0 -129 -21.5 -252t-47.5 -247q45 63 102 135.5t117.5 135t121 103.5t113.5 41q51 0 81 -33.5t48.5 -84t30.5 -111t31 -111.5q12 -35 22 -66.5t25.5 -56 t36 -40t53.5 -15.5q18 2 40.5 7t51.5 18q96 43 145.5 73.5t57.5 34.5q14 4 29.5 9.5t21.5 5.5q2 0 4 -2q0 -4 -10 -15q-29 -29 -71 -63.5t-93 -65.5t-106.5 -52.5t-108.5 -21.5q-41 0 -80 15.5t-74 56.5q-16 18 -29.5 59t-25.5 91.5t-24.5 102.5t-24.5 96t-26.5 72t-32.5 28 q-25 0 -62 -29t-79 -75t-88 -105.5t-90 -122t-84 -123.5t-69 -109q-6 -10 -31.5 -19t-47.5 -9q-25 0 -25 14z" />
<glyph unicode="o" horiz-adv-x="628" d="M4 139v15q0 55 19.5 118.5t46 122t53.5 104.5t39 66q-27 2 -27 21q0 16 15.5 29.5t21.5 13.5q55 -12 124 -21.5t129 -32t100 -65.5t40 -125q0 -72 -31.5 -140.5t-86 -121.5t-125 -86t-148.5 -33q-66 0 -116 29.5t-54 105.5zM96 178q0 -63 37 -90t74 -27q45 0 91 26t85 68 t63.5 93t24.5 102q0 35 -8 62q-12 43 -36 70.5t-55.5 44t-68.5 23.5t-76 11q-16 -47 -38.5 -94t-43 -95t-35 -96.5t-14.5 -97.5z" />
<glyph unicode="p" horiz-adv-x="821" d="M-156 -842q0 2 1 3t1 3q102 373 166 742.5t82 755.5q16 18 33 32q14 12 27.5 23.5t21.5 11.5t8 -10q0 -115 -12 -230.5t-25 -230.5q43 57 104.5 119.5t129.5 113t133.5 83t118.5 32.5q41 0 70 -21.5t45 -68.5q6 -23 6 -45q0 -41 -17.5 -84t-44 -82t-58.5 -70.5t-59 -52.5 q-88 -66 -187 -105.5t-208 -39.5q-16 0 -29.5 1t-29.5 3q-31 -223 -74 -439t-100 -427q-4 -16 -25.5 -26.5t-44.5 -10.5q-33 0 -33 20zM129 106q0 -4 8 -5t19 -1q37 0 86 11.5t102 33t104.5 51t92.5 66.5t67.5 80t30.5 90v19q0 41 -15.5 57t-39.5 16q-29 0 -68 -18.5 t-76 -43t-67.5 -50t-44.5 -39.5q-53 -53 -109.5 -120t-85.5 -134q0 -2 -2 -4v-2q-2 0 -2 -7z" />
<glyph unicode="q" horiz-adv-x="620" d="M-55 119q0 31 10 63.5t23.5 61t27.5 51t23 33.5q39 49 87 100t100 91t104.5 65.5t101.5 25.5q35 0 53 -12l6 25q4 16 26.5 26t45.5 10q25 0 25 -16v-6q-23 -92 -52.5 -213t-61.5 -253t-63.5 -267t-56.5 -257t-40 -221.5t-15 -160.5q0 -23 2 -40.5t8 -27.5q-4 -14 -12 -24 q-6 -10 -13.5 -17.5t-17.5 -7.5q-35 0 -35 92q0 68 14.5 176.5t39 241.5t56 284.5t66.5 303.5q-106 -106 -191 -176t-151 -70q-57 0 -83.5 39t-26.5 80zM45 156q0 -49 41 -50q20 0 48 11.5t67 38.5q117 78 175 166t79 186q-16 39 -62 39q-47 0 -107.5 -42t-113.5 -101.5 t-90 -128t-37 -119.5z" />
<glyph unicode="r" horiz-adv-x="692" d="M2 14q0 12 3 24.5t3 22.5q29 111 61.5 261.5t55.5 310.5q4 25 32.5 42t43.5 17q8 0 8 -6q0 -29 -6 -74t-12.5 -91t-13.5 -88t-11 -64q86 125 206 187t234 62q41 0 71 -9t40 -31v-7q0 -6 -8 -6q-10 0 -38 7.5t-57 7.5q-43 0 -86 -14.5t-81.5 -36t-71.5 -46t-53 -43.5 q-47 -43 -82 -86t-60.5 -90t-43 -102.5t-27.5 -124.5q-2 -12 -31 -22.5t-51 -10.5q-25 0 -25 10z" />
<glyph unicode="s" horiz-adv-x="679" d="M2 -213q0 41 21.5 80t55.5 73.5t75 62.5t77 46q-18 55 -46.5 111.5t-56.5 112t-48.5 107.5t-20.5 101q0 31 15.5 66t46.5 65.5t79 50t113 19.5q43 0 86 -15.5t80 -52.5q4 -4 11.5 -20t7.5 -27q0 -2 -2 -4q-6 0 -22.5 10.5t-41 22.5t-55.5 22.5t-68 10.5q-63 0 -115.5 -36 t-52.5 -93q0 -18 6 -33q12 -49 35 -95t48.5 -91t50 -91.5t41.5 -95.5q115 55 223 98.5t172 77.5q12 6 31 6q10 0 17 -3t7 -9q0 -8 -20 -20q-98 -61 -206 -102.5t-210 -94.5q10 -47 10 -88t-14.5 -88t-42 -88t-67.5 -68.5t-89 -27.5q-72 0 -101.5 32.5t-29.5 67.5zM66 -205 q0 -25 17 -38t40 -13t45.5 11t38.5 34q27 29 37 62.5t10 68.5q0 18 -2 37.5t-6 38.5q-18 -12 -49 -34.5t-61 -49.5t-50 -57.5t-20 -59.5z" />
<glyph unicode="t" horiz-adv-x="735" d="M-90 567q0 12 28.5 18.5t74.5 10.5t104.5 7t118.5 7q6 35 16 85t23.5 96.5t32 79t42.5 32.5q12 0 12 -10q0 -23 -8 -64t-17 -85t-17.5 -79.5t-10.5 -48.5q57 4 105.5 8.5t94.5 8.5t90 9t91 13q10 0 25.5 -9t15.5 -21t-51 -24.5t-121 -22t-142.5 -16.5t-115.5 -11 q-20 -92 -33.5 -183.5t-13.5 -179.5q0 -72 26.5 -101.5t73.5 -29.5t107.5 23.5t119 56.5t107.5 65t78 48q8 6 14 6q8 0 8 -10t-9 -26.5t-29 -31.5q-25 -16 -72 -49t-106.5 -65.5t-125 -56t-124.5 -23.5q-31 0 -58.5 7t-49 26.5t-35 54.5t-13.5 92q0 53 8 112.5t17.5 113 t18.5 92t13 51.5q-78 -6 -146.5 -10.5t-127.5 -6.5q-10 0 -24.5 13.5t-14.5 27.5z" />
<glyph unicode="u" horiz-adv-x="1050" d="M6 158q0 59 13.5 129.5t32 137.5t35.5 121t24 83q4 14 29.5 23.5t47.5 9.5q25 0 25 -15v-2q-12 -49 -29.5 -104.5t-34 -113.5t-27.5 -116.5t-11 -113.5q0 -20 2 -44t8 -43.5t16 -31.5t27 -12q29 0 68.5 27.5t78.5 64.5t71 73.5t44 53.5q25 33 47.5 78t48 85.5t56 69.5 t71.5 29q14 0 15 -10v-9q-6 -53 -19.5 -134t-13.5 -161q0 -35 3 -68.5t14 -62t30.5 -46t50.5 -17.5q43 0 98.5 25.5t108.5 59.5t99 67.5t71 50.5q10 4 29.5 11t29.5 7q8 0 9 -4q0 -6 -13 -14q-63 -51 -125.5 -106.5t-132.5 -90.5q-35 -18 -91 -40.5t-116 -22.5 q-98 0 -129.5 61t-31.5 162q0 33 2 64.5t6 62.5q-41 -59 -88 -118.5t-99.5 -107t-109 -77t-113.5 -29.5q-72 0 -99.5 41t-27.5 117z" />
<glyph unicode="v" horiz-adv-x="622" d="M2 567q0 12 19.5 25.5t37.5 13.5q12 0 18.5 -37t9.5 -93t5 -120.5t7 -121t15.5 -93.5t30.5 -37t55.5 34t77 86t85 118t81 130.5t66.5 120.5t39 91q4 8 27.5 16.5t39.5 8.5t17 -9q0 -2 -1 -3t-1 -3q-45 -111 -113.5 -233.5t-142.5 -227t-143.5 -172t-118.5 -67.5 q-31 0 -49.5 28.5t-27.5 75.5t-13.5 107.5t-6.5 124t-4 126t-10 111.5z" />
<glyph unicode="w" horiz-adv-x="1036" d="M2 33q0 20 4 38.5t11.5 64.5t17.5 135t20 253q0 10 23.5 28.5t42.5 18.5q16 0 16 -18q0 -47 -1 -101.5t-4 -109.5t-7 -109.5t-8 -99.5q86 90 151.5 189.5t116.5 236.5q4 14 23.5 21.5t35.5 7.5q29 0 31 -19q2 -55 17.5 -132t41 -146.5t62.5 -118.5t86 -49q39 0 82 37 t80 129q49 123 73.5 201.5t35 126t10.5 68t2 26.5q4 16 26.5 28.5t38.5 12.5q14 0 14 -9v-4q-10 -31 -23 -97.5t-34.5 -146t-52.5 -163.5t-72 -153.5t-93 -114t-120 -44.5q-53 0 -93 39t-68.5 98.5t-49 129t-35.5 133.5q-27 -41 -61.5 -94.5t-75.5 -107.5t-87 -107.5 t-95 -94.5q-18 -14 -43 -14q-16 0 -27.5 7t-11.5 24z" />
<glyph unicode="x" horiz-adv-x="729" d="M-70 18q0 8 15 17q84 55 137 94t89 68.5t61.5 53t56.5 50.5q-10 37 -22.5 84l-25 94t-23.5 87t-17 61v4q0 16 26.5 26.5t48.5 10.5q20 0 27 -11l70 -290q43 33 75.5 61.5t62.5 53t57.5 43t60.5 34.5q2 0 5 1t7 1q18 0 43 -8t25 -21q0 -6 -11 -12q-51 -37 -87 -61.5 t-67.5 -47t-66.5 -48t-84 -64.5q23 -78 48.5 -163t56 -168t66.5 -158.5t78 -133t89 -92.5t103 -35q53 0 102 41q10 10 33.5 16.5t40.5 6.5q14 0 14 -6t-12 -15q-59 -49 -113.5 -71.5t-103.5 -22.5q-92 0 -168 70t-135.5 178.5t-105.5 239.5t-79 252q-72 -57 -149.5 -113.5 t-163.5 -116.5q-8 -8 -27 -8q-14 0 -25.5 5t-11.5 13z" />
<glyph unicode="y" horiz-adv-x="878" d="M2 162q0 53 11.5 118.5t28.5 135t36 140t31 136.5q4 12 27.5 19.5t43.5 7.5q25 0 25 -10q-16 -70 -34.5 -145t-34 -146.5t-25 -135t-9.5 -108.5q0 -51 8.5 -73.5t30.5 -22.5q25 -2 55.5 19.5t53.5 37.5q106 82 159.5 156t84 130t54 89t75.5 33q18 0 18 -11 q-18 -82 -42 -230t-56 -325q100 78 199.5 145.5t185.5 133.5q8 6 28 6q12 0 21.5 -3t9.5 -9t-10 -14q-92 -72 -214 -155t-235 -173q-31 -152 -69.5 -302.5t-85.5 -270t-104.5 -193.5t-127.5 -74q-66 0 -99.5 45t-33.5 101q0 57 23.5 124.5t58.5 134t74 126t74 100.5 q43 51 92 99t104 93q25 113 44.5 213.5t35.5 204.5q-45 -63 -96 -118.5t-102.5 -95.5t-101.5 -62.5t-95 -22.5q-66 0 -91.5 42t-25.5 110zM76 -748q0 -39 17.5 -66.5t41.5 -27.5q37 0 76 58.5t73.5 147.5t66.5 195.5t55 202.5l10 52q-29 -25 -52.5 -50.5t-44.5 -48.5 q-23 -25 -62.5 -79t-80.5 -119.5t-70.5 -136t-29.5 -128.5z" />
<glyph unicode="z" horiz-adv-x="884" d="M2 -72q0 6 2 9q53 119 125 224t143 214q12 18 31 41.5t36 48t30.5 50.5t17.5 50q0 4 -6 4q-14 0 -53 -15t-80 -33.5t-72 -33t-29 -14.5q-14 -8 -41 -8q-16 0 -31.5 4t-15.5 14q0 8 23 21q8 4 50 26.5t96.5 48t111.5 46t98 20.5q57 0 58 -53q0 -29 -14.5 -59.5t-34 -59.5 t-41 -55.5t-33.5 -44.5q-59 -88 -121 -175t-109 -182q182 86 366.5 156t387.5 98q4 0 8 1t8 1q25 0 25 -16q0 -12 -16.5 -26.5t-38.5 -18.5q-215 -31 -413 -113t-390 -176q-4 -2 -18.5 -4t-28.5 -2q-12 0 -21.5 2t-9.5 10z" />
<glyph unicode="&#x2000;" horiz-adv-x="942" />
<glyph unicode="&#x2001;" horiz-adv-x="1884" />
<glyph unicode="&#x2002;" horiz-adv-x="942" />
<glyph unicode="&#x2003;" horiz-adv-x="1884" />
<glyph unicode="&#x2004;" horiz-adv-x="628" />
<glyph unicode="&#x2005;" horiz-adv-x="471" />
<glyph unicode="&#x2006;" horiz-adv-x="314" />
<glyph unicode="&#x2007;" horiz-adv-x="314" />
<glyph unicode="&#x2008;" horiz-adv-x="235" />
<glyph unicode="&#x2009;" horiz-adv-x="376" />
<glyph unicode="&#x200a;" horiz-adv-x="104" />
<glyph unicode="&#x202f;" horiz-adv-x="376" />
<glyph unicode="&#x205f;" horiz-adv-x="471" />
<glyph unicode="&#x25fc;" horiz-adv-x="665" d="M0 0v666h666v-666h-666z" />
</font>
</defs>
</svg>
