<?xml version="1.0" standalone="no"?>
<!DOCTYPE svg PUBLIC "-//W3C//DTD SVG 1.1//EN" "http://www.w3.org/Graphics/SVG/1.1/DTD/svg11.dtd" >
<svg xmlns="http://www.w3.org/2000/svg">
<metadata></metadata>
<defs>
<font id="sweetly_brokenregular" horiz-adv-x="614" >
<font-face units-per-em="2048" ascent="1536" descent="-512" />
<missing-glyph horiz-adv-x="395" />
<glyph horiz-adv-x="2048" />
<glyph horiz-adv-x="2048" />
<glyph unicode="&#xd;" horiz-adv-x="2048" />
<glyph unicode=" "  horiz-adv-x="395" />
<glyph unicode="&#x09;" horiz-adv-x="395" />
<glyph unicode="&#xa0;" horiz-adv-x="395" />
<glyph unicode="!" horiz-adv-x="243" d="M76 45.5q-2 20.5 11 39.5t46 15q16 4 20.5 -10t-12.5 -20q-8 -4 -6 -4h-2v-7q10 -2 13.5 -14t-11.5 -16q-25 -25 -41 -14.5t-18 31zM79 793.5q-3 103.5 3 195.5q0 16 13.5 18.5t17.5 -14.5q2 -45 6 -71.5t8 -48t7 -46t5 -65.5q6 -131 7 -260t-7 -260q-4 -16 -17 -15.5 t-13 17.5q-2 63 -8.5 153t-12.5 191.5t-9 205z" />
<glyph unicode="&#x22;" horiz-adv-x="264" d="M31 1159q-4 61 4 133q0 16 13 18.5t18 -14.5q14 -72 19 -133t-5 -133q-2 -12 -14.5 -15t-16.5 11q-14 72 -18 133zM164 1067q2 43 3 72.5t1 55.5t2 48t8 49q0 16 13.5 18.5t17.5 -14.5q12 -63 13 -120.5t-27 -116.5q-8 -10 -19.5 -8t-11.5 16z" />
<glyph unicode="#" horiz-adv-x="774" d="M30 639q1 12 13 14q39 4 77 9.5t77 11.5q-4 72 -6.5 144.5t2.5 144.5q0 16 13 18t17 -14l25 -283q72 12 141.5 23.5t140.5 19.5q2 43 4.5 86t6.5 88q6 14 16 13t14 -15l7 -168q29 4 59.5 4h60.5q16 -2 16.5 -16t-16.5 -14q-25 -2 -48 -3.5t-48 -5.5q4 0 22.5 2t12.5 0 l-59 -12v-72.5t-3 -70.5q29 2 55.5 2h55.5q16 -2 16 -16.5t-16 -14.5q-20 -4 -49 -8t-64 -12q-2 -68 -6 -135.5t-8 -135.5q-4 -16 -17.5 -15t-13.5 17q-4 66 -5 129.5t-1 128.5q-59 -14 -126.5 -28.5t-131.5 -24.5q2 -104 0 -207q-2 -12 -14 -15t-17 11l-18 201 q-27 -4 -52.5 -4t-35.5 18q-4 16 9.5 22.5t19.5 -10.5q2 -4 9 2.5t17 10.5q6 4 13.5 5t17.5 5q-4 39 -7 78t-5 80q-41 -4 -80 -5t-78 1q-14 4 -13 16zM252 633q4 -39 5 -77t3 -75q68 18 132.5 32.5t129.5 23.5q0 35 1 69.5t3 69.5q-68 -14 -136 -25.5t-138 -17.5zM260 477 q2 0 2 1t2 1t1 1t-5 -1v-2z" />
<glyph unicode="$" horiz-adv-x="722" d="M37 782q-6 18 6 33q16 14 30.5 29.5t32.5 23.5q23 10 67 27.5t97 32.5q-4 35 -4 66.5t4 58.5q6 14 16.5 13t14.5 -15q-4 -25 3 -48.5t9 -48.5q0 -10 2 -14q61 14 116.5 12t80.5 -34q6 -10 1 -17.5t-15 -7.5t-15 -2q-16 6 -12 20q-23 10 -63.5 4t-88.5 -18 q6 -47 10.5 -101.5t8.5 -88.5q0 -10 1 -22.5t1 -22.5q18 -10 54 -29t76 -41.5t80 -51t65.5 -59t30.5 -65.5t-21 -70q-31 -39 -103.5 -82t-171.5 -65q0 -39 -1 -59.5t-2 -39t-2 -39t-3 -59.5q-4 -16 -17.5 -15t-13.5 17v24.5t-1 11.5t-2 11t-1 25q0 8 0 -4.5v-29.5v-29.5 t0 -4.5q-4 53 -6 89t-4 89q-74 -12 -135.5 -9t-91.5 32q-10 10 -15.5 21.5t-13.5 21.5q-4 16 6 21.5t21 -5.5q6 -8 10 -17t12 -15q31 -16 86 -17.5t119 10.5q-2 39 -3 89.5t-3 103.5t-3 103t-1 89q-86 29 -154 66t-94 102zM92 791q10 -23 32.5 -40.5t49.5 -29.5t54.5 -20.5 t47.5 -16.5q2 -2 7 -2q-2 35 -3 72t-1 73q0 12 -1.5 25.5t-3.5 30.5q-74 -23 -114 -43q4 2 7 2t1 0q-39 -18 -76 -51zM344 596q2 -35 3 -82t2 -95t1 -95v-82q139 23 191.5 67.5t40 96t-78 102.5t-159.5 88z" />
<glyph unicode="%" horiz-adv-x="954" d="M10 842q2 43 22.5 87t53.5 79.5t64 46.5q10 4 27.5 9t34.5 5t30.5 -7t13.5 -26l-6 -10q27 -10 63.5 -27.5t53.5 -42.5q29 -43 23.5 -78.5t-32 -63.5t-69.5 -46t-88 -24.5t-89 1t-73 29.5q-31 25 -29 68zM69 839.5q3 -32.5 40 -40.5q27 -4 62.5 2t57.5 12q66 18 91.5 39.5 t21.5 46.5t-35 51.5t-78 53.5q-10 4 -9 12t5 12v6q-16 -4 -30.5 -6t-28.5 -8q-18 -10 -44 -42t-41 -69t-12 -69.5zM188 -111q57 236 126 465.5t175 448.5q45 92 94.5 181t106.5 173q8 10 21.5 26.5t29 35t27.5 37t16 32.5q6 16 20.5 12t10.5 -20q-16 -39 -43 -75t-49 -70 q-51 -86 -96 -175.5t-86 -181.5q-98 -217 -176 -441t-146 -456q-8 -10 -19.5 -8t-11.5 16zM526 414q2 45 25.5 83t66.5 48l70 12q16 4 20.5 -10.5t-12.5 -20.5q-16 -4 -31.5 -6t-29.5 -10q-27 -14 -42 -42t-16.5 -58.5t14 -57t48.5 -37.5q31 -6 66 -2q35 6 71.5 15.5 t67.5 29.5q33 23 29.5 46.5t-24 46t-49 43t-44.5 36.5q-8 12 0 21.5t20 3.5q18 -16 43 -31.5t47.5 -33t40 -38t23.5 -46.5q10 -43 -29 -75t-94 -50.5t-111.5 -23.5t-79.5 5q-47 20 -69.5 63.5t-20.5 88.5z" />
<glyph unicode="&#x26;" horiz-adv-x="749" d="M30 80.5q3 25.5 30.5 58.5t63.5 66t71.5 61.5t58.5 48.5l-59 64q-29 31 -51.5 65.5t-43.5 69.5q-12 27 -26.5 60.5t-20.5 70.5t-3 76t24 74q18 33 47 65.5t63.5 56t75.5 32.5t88 -9q61 -23 114.5 -70t82 -107.5t26.5 -127t-51 -129.5q-43 -57 -94 -105.5t-104 -95.5 q45 -43 92 -83t96 -77q35 12 68.5 23.5t62.5 21.5q16 4 20.5 -10t-12.5 -20l-108 -39q68 -41 124.5 -88t122.5 -88q12 -6 10.5 -18.5t-16.5 -12.5q-12 2 -46 23.5t-77 51t-88 61.5t-77 56q-35 -12 -72 -23l-74 -22q-41 -10 -89 -23t-95 -13q-78 -2 -107.5 14t-26.5 41.5z M78 80q82 -23 184.5 -3.5t200.5 52.5q-6 4 -10 7t-9 7q-4 4 -8 7q-59 47 -90 73.5t-57 55.5q-25 -27 -53.5 -48.5t-57 -44t-54.5 -48t-46 -58.5zM108.5 710.5q-8.5 -75.5 38.5 -171.5q29 -53 64 -101.5t76 -95.5q72 59 135 126t80 138q10 41 1 86t-31.5 85t-58.5 68.5 t-79 37.5q-31 6 -68 1t-63 -28q-86 -70 -94.5 -145.5z" />
<glyph unicode="'" horiz-adv-x="137" d="M31 1159q-4 61 4 133q0 16 13 18.5t18 -14.5q14 -72 19 -133t-5 -133q-2 -12 -14.5 -15t-16.5 11q-14 72 -18 133z" />
<glyph unicode="(" horiz-adv-x="569" d="M66 631q-4 53 11 125.5t42.5 152.5t66.5 162t85 155.5t97.5 133t104.5 94.5q12 6 20.5 -3t0.5 -21q-63 -45 -120 -125t-103 -171.5t-77.5 -182.5t-46.5 -160q-23 -117 -19.5 -235t44.5 -230q25 -66 57.5 -117t72.5 -95t88 -83t104 -78q12 -10 7 -22.5t-22 -6.5 q-59 39 -111.5 78t-97.5 83t-82.5 97.5t-64.5 120.5q-18 47 -28.5 85t-15.5 75t-8 77t-5 91z" />
<glyph unicode=")" horiz-adv-x="550" d="M62.5 -69.5q-5.5 12.5 7.5 22.5q55 39 103 78t88 83t73 95t57 117q41 113 44 230.5t-19 234.5q-14 70 -46 160.5t-78 182t-102.5 171.5t-119.5 125q-8 12 0 21t20 3q51 -35 103.5 -94.5t98.5 -133t85 -155.5t66.5 -162t42 -152.5t12.5 -125.5q-4 -51 -6.5 -91t-7.5 -77 t-15 -75t-29 -85q-29 -68 -65.5 -121t-81.5 -97t-97.5 -83t-111.5 -78q-16 -6 -21.5 6.5z" />
<glyph unicode="*" horiz-adv-x="598" d="M10 399.5q8 28.5 35 50t76 42.5q18 8 46 1.5t42 -16.5q53 -43 85 -94t58 -115q16 18 43 47t56.5 48.5t59.5 19.5t50 -37q10 -16 11 -40.5t-7 -43.5q-16 -43 -44.5 -77.5t-61.5 -67.5t-63.5 -65t-53.5 -70q8 -16 -8 -21q-10 -18 -17 -43q-8 -10 -19 -8t-11 16l10 47 q-47 18 -82 49t-65 72q-33 45 -54.5 75t-48.5 79q-25 49 -35 86t-2 65.5zM63 389q-6 -45 16.5 -102.5t59.5 -112.5t83 -102t89 -70l19 31q16 25 54 61.5t73 76.5t54 81t-1 76q-23 0 -42 -15.5t-35.5 -36t-32 -42t-29.5 -33.5q-27 -25 -49 4q-33 43 -51.5 94t-55.5 92 q-10 14 -33.5 26.5t-48 16.5t-45.5 -5t-25 -40z" />
<glyph unicode="+" horiz-adv-x="585" d="M30 439.5q3 11.5 15 13.5h8l13 -7q10 -4 17 -4t15 -2q72 2 125 13q0 72 3 143.5t7 136.5q0 16 13.5 18.5t17.5 -14.5l23 -270q51 12 107.5 22.5t142.5 10.5q16 -2 16 -16.5t-16 -14.5q-29 -4 -97.5 -26.5t-148.5 -36.5q0 -6 1 -10.5t1 -10.5q0 -49 -6 -97t-4 -130 q4 -14 -8.5 -18.5t-20.5 5.5q-12 53 -18.5 115t-10.5 135q-53 -6 -102 -1t-84 28q-12 6 -9 17.5z" />
<glyph unicode="," horiz-adv-x="237" d="M55 -182q2 31 16.5 63.5t26 63t9.5 53.5t-31 33q-16 4 -13 19.5t19 10.5q63 -2 76.5 -30.5t1 -67.5t-38 -82t-35.5 -71q-8 -10 -19.5 -8.5t-11.5 16.5z" />
<glyph unicode="-" horiz-adv-x="456" d="M33 313.5q4 12.5 18 8.5q31 -10 68 -8.5t78 7t87 11.5t97 4q16 -2 16 -16.5t-16 -14.5q-25 -4 -65 -16.5t-86 -19.5t-96 -4t-93 28q-12 8 -8 20.5z" />
<glyph unicode="." horiz-adv-x="225" d="M65 48.5q6 15.5 41 29.5q10 8 17.5 3t5.5 -15q4 0 4 4q6 14 16.5 13t14.5 -15q8 -35 -2 -51.5t-27.5 -19.5t-37 4t-29 19.5t-3.5 28z" />
<glyph unicode="/" horiz-adv-x="620" d="M23 -111q57 236 125.5 465.5t175.5 448.5q45 92 94 181t106 173q8 10 21.5 26.5t29 35t27.5 37t16 32.5q6 16 20.5 12t10.5 -20q-16 -39 -42.5 -75t-49.5 -70q-51 -86 -96 -175.5t-86 -181.5q-98 -217 -176 -441t-146 -456q-8 -10 -19 -8t-11 16z" />
<glyph unicode="0" horiz-adv-x="905" d="M35 529.5q2 115.5 28.5 226t74.5 209t112 165.5q14 14 43 41t64.5 53.5t75.5 49t76 33t64.5 3.5t40.5 -40q4 -14 -8 -18.5t-20 5.5l-8 19q-53 6 -108.5 -20.5t-105 -69.5t-88 -93.5t-61.5 -93.5q-47 -92 -79 -191t-42 -204q-6 -68 -4 -134.5t25 -133.5q33 -106 98.5 -175 t145 -93.5t168.5 -2t171 100.5q51 49 74 110q20 51 21.5 104.5t-10 106t-30 102.5t-38.5 95q-45 109 -100.5 210t-108.5 206q-4 16 9 22t20 -10q45 -86 92 -170t89 -169t75.5 -174t52.5 -187q18 -96 -27 -181.5t-123 -143.5t-176 -80.5t-186 7.5q-109 39 -174.5 118 t-95 180.5t-27.5 217z" />
<glyph unicode="1" horiz-adv-x="249" d="M68 358.5q0 145.5 1 285.5t4 285.5t5 325.5q0 16 13 18.5t18 -13.5q10 -201 13 -349.5t2 -283.5t-7 -274.5t-17 -321.5q-4 -16 -17 -15.5t-13 17.5q-2 180 -2 325.5z" />
<glyph unicode="2" horiz-adv-x="804" d="M69 1248q-1 9 9 16v2h2q33 20 79 25t81 9q63 8 147 6.5t155.5 -26.5t120 -78t42.5 -145q-4 -72 -46.5 -145.5t-100.5 -149.5t-124.5 -153t-121 -155.5t-86 -157.5t-21.5 -159q10 -10 18 -21.5t17 -23.5q82 -4 145.5 -1t118.5 10.5t109.5 17.5t117.5 20q14 -2 16.5 -13 t-12.5 -17q-63 -12 -125.5 -26.5t-128.5 -27.5q-31 -4 -49 -9t-43 -5q-43 2 -88 -4t-86 10q-61 25 -78.5 71t-6.5 103.5t44 118.5t69 116.5t69.5 97.5t47.5 60q20 25 56.5 72t74 98.5t71.5 100.5t52 80q25 43 33 77.5t-6 79.5q-18 61 -65.5 92t-105.5 43.5t-120.5 10.5 t-111.5 -4h14q-29 -4 -62.5 -6.5t-64.5 -10.5q0 -14 -16 -14q-6 2 -13.5 2h-13.5q-12 4 -13 13z" />
<glyph unicode="3" horiz-adv-x="774" d="M57.5 78q-2.5 10 8.5 20q31 -2 95 20.5t140 60.5t152.5 87t130 100.5t74 100.5t-14.5 90q-31 35 -77 58.5t-97 38t-103.5 22.5t-95.5 14q-8 2 -40.5 4t-69.5 6.5t-65.5 9.5t-28.5 11q0 8 29.5 36.5t73.5 70.5t95 93.5t96.5 103.5t78 100.5t38.5 84.5q6 41 -31.5 58.5 t-90 20.5t-104 -5t-69.5 -20q-16 -6 -21 6t7 22q29 20 90 31.5t121.5 5.5t104.5 -34.5t40 -86.5q-2 -29 -27.5 -71.5t-63.5 -90t-82 -95.5t-83 -88t-67.5 -67.5t-34.5 -33.5q29 -6 64.5 -8t52.5 -4q111 -16 211 -48t188 -104q53 -43 40 -101.5t-67.5 -120t-136.5 -120.5 t-168 -103t-161.5 -69t-114.5 -16q-14 0 -16.5 10z" />
<glyph unicode="4" horiz-adv-x="690" d="M55.5 685q-2.5 30 0.5 62.5t9.5 64.5t10.5 52q6 43 15 114t13.5 142.5t-1 131t-23.5 81.5l-4 -2q-16 0 -18.5 13.5t14.5 17.5q6 2 14 2q10 0 14 -6q39 -43 47.5 -130t2 -185.5t-18.5 -191.5t-10 -149q29 8 73 14.5t97 10.5t111.5 4t113.5 -2q2 147 6 294.5t8 297.5 q0 16 13.5 18t17.5 -14q10 -299 6 -598q66 -6 118 -18.5t85 -34.5q10 -6 15.5 -17.5t13.5 -21.5q4 -12 -3.5 -19.5t-21.5 -1.5q-6 10 -10 19.5t-14 13.5q-29 16 -77 24.5t-106 10.5q0 -74 -2 -158l-4 -168t-4 -167t-4 -156q-4 -16 -17.5 -15.5t-13.5 17.5q-2 74 -4 156.5 t-2 167.5v168v157q-57 0 -117.5 -4t-116 -11t-102.5 -16.5t-78 -19.5q-10 0 -14 2t-14 6q-16 14 -18.5 44z" />
<glyph unicode="5" horiz-adv-x="811" d="M29 72q-8 12 0 21t20 3q10 -10 20.5 -19t22.5 -16q76 -35 159 -21.5t159.5 59.5t139 117t97.5 150.5t36 159.5t-44 144q-45 66 -108.5 100.5t-133 43.5t-139.5 -6t-125 -50q-14 -4 -26.5 -1t-16.5 19q-16 72 -6 144.5t25 144.5l36 164q8 41 11.5 61.5t10.5 28.5t23.5 10 t51.5 6h-2q53 16 110.5 23.5t112.5 11.5q98 12 196 12q16 -2 16.5 -16t-16.5 -14q-41 -2 -71.5 -4t-62 -5.5t-68.5 -9.5t-90 -16l-21 -4q-22 -4 -49 -9.5t-53.5 -10.5t-38.5 -5q-2 -16 -6 -38.5t-9.5 -45t-9.5 -43t-6 -33.5v2q-14 -76 -25.5 -150.5t-13.5 -152.5 q61 20 128 31.5t131.5 8.5t126 -23.5t110.5 -63.5q72 -61 97.5 -136t17 -152.5t-47.5 -153.5t-96 -139.5t-130 -110.5t-149.5 -67.5t-152.5 -10.5t-141 62zM236 1335h4h-4z" />
<glyph unicode="6" horiz-adv-x="854" d="M35 326q16 100 54 197.5t85 191.5q-4 -2 -8 -2q-14 0 -16.5 10t8.5 20q8 4 17 5.5t20 3.5q47 90 98 174t100 166l13 22q12 23 30.5 55.5t42 72.5t44 74t37 57.5t22.5 25.5q16 4 20 -10.5t-12 -20.5q-6 -4 -6 -11t-4 -18l-154 -270q-23 -41 -47.5 -83t-46.5 -85 q-14 -25 -32.5 -60.5t-41.5 -80.5q98 4 206.5 -29t192.5 -94.5t126 -148.5t5 -191q-29 -82 -102.5 -147.5t-163.5 -104.5t-185 -47t-170 23.5t-114 105.5t-18 199zM89 247.5q-3 -71.5 25.5 -120.5t94 -67.5t182.5 8.5q78 18 150 55q121 63 168 134t41.5 140.5t-54.5 131 t-121.5 107.5t-160.5 70.5t-172 18.5q-35 -74 -70 -158t-57.5 -166t-25.5 -153.5z" />
<glyph unicode="7" horiz-adv-x="749" d="M32 1220.5q1 6.5 7 10.5v4h8q63 8 127 19.5t125 20.5t123.5 12t128.5 -9q72 -12 105.5 -61.5t41 -117t-7 -148.5t-36 -156.5t-45 -140t-38.5 -99.5q-31 -80 -56.5 -146.5t-50 -130t-48 -127t-49.5 -139.5q2 16 -1.5 15.5t-6.5 -7t-6 -11.5t-3 3q25 115 59.5 221.5 t73.5 212t74 215t59 230.5q6 33 13.5 75t7.5 84t-11.5 80.5t-39.5 67.5q-31 31 -88.5 40t-124 5t-136 -14t-126.5 -19q-2 -8 -15 -8h-61v8q-4 4 -3 10.5z" />
<glyph unicode="8" horiz-adv-x="794" d="M44 1033.5q3 33.5 19.5 62t42 53.5t50.5 45q20 14 62 30.5t97.5 30t116 25.5t116.5 17.5t103 5.5t72 -11q10 -4 12 -12t-8 -16q-8 -6 -13.5 -7.5t-17.5 -5.5q-20 0 -16 17q-27 2 -55.5 -1t-53.5 -7h13q-45 -8 -109.5 -16.5t-130 -25t-123 -42t-90.5 -64.5t-32 -95 t53 -132q59 -84 139 -143.5t160 -118.5q53 59 106 118.5t102 122.5q10 14 22.5 6t2.5 -22q-49 -66 -99 -127.5t-104 -122.5q63 -47 117.5 -101.5t89.5 -127.5q8 -18 4 -41t-16 -45.5t-26.5 -42t-26.5 -27.5q-35 -29 -99.5 -73t-139.5 -80.5t-149.5 -55t-125.5 3.5 q-45 18 -49.5 54t11 75t41 75t40.5 56q59 82 124.5 159t135.5 153q-57 45 -108.5 85t-95.5 84t-82 94t-69 118q-16 39 -13 72.5zM115 80l18 -23q57 0 107.5 12.5t103.5 34.5q49 23 93 45.5t85 53.5q74 55 91.5 101t-2 88t-66.5 81t-101 80l-49 -57q-39 -47 -81 -95.5 t-80.5 -99.5t-70.5 -106.5t-48 -114.5z" />
<glyph unicode="9" horiz-adv-x="880" d="M41 866q6 41 52 103.5t113.5 128t147.5 125t157 91.5t141.5 27.5t99.5 -63.5q6 -14 -5.5 -21.5t-21.5 5.5q-53 35 -116.5 30.5t-129 -35t-128 -81t-114 -106.5t-89 -113.5t-54.5 -100.5q-12 -43 27 -57.5t106.5 -9t150.5 27t156.5 52t124 65.5t54.5 70l8 6 q10 39 24.5 71.5t30.5 51.5q0 2 1 2t1 2v-2q10 10 25 14q35 -4 28 -39q-8 -31 -12 -47t-9 -27.5t-13.5 -21.5t-26.5 -31q-10 -35 -18.5 -70.5t-18.5 -70.5q-29 -113 -54.5 -225.5t-51.5 -227.5q-2 -4 0 4t3 18.5t3 18.5t0 2q-20 -109 -40 -219.5t-15 -222.5 q-2 -12 -14.5 -15.5t-16.5 11.5q-4 111 7 220t30.5 219t45 217.5t52.5 211.5l12 57q-33 -35 -97.5 -72.5t-141 -66.5t-155.5 -44t-140.5 -8t-96 41t-22.5 105z" />
<glyph unicode=":" horiz-adv-x="221" d="M65 48.5q6 15.5 41 29.5q10 8 17.5 3t5.5 -15q4 0 4 4q6 14 16.5 13t14.5 -15q8 -35 -2 -51.5t-27.5 -19.5t-37 4t-29 19.5t-3.5 28zM65 332.5q6 15.5 41 29.5q10 8 17.5 3t5.5 -15q4 0 4 4q6 14 16.5 13.5t14.5 -15.5q8 -35 -2 -51t-27.5 -19t-37 4t-29 19t-3.5 27.5z " />
<glyph unicode=";" horiz-adv-x="219" d="M55 -182q2 31 16.5 63.5t26 63t9.5 53.5t-31 33q-16 4 -13 19.5t19 10.5q63 -2 76.5 -30.5t1 -67.5t-38 -82t-35.5 -71q-8 -10 -19.5 -8.5t-11.5 16.5zM65 332.5q6 15.5 41 29.5q10 8 17.5 3t5.5 -15q4 0 4 4q6 14 16.5 13.5t14.5 -15.5q8 -35 -2 -51t-27.5 -19t-37 4 t-29 19t-3.5 27.5z" />
<glyph unicode="&#x3c;" horiz-adv-x="479" d="M54 295.5q1 23.5 20.5 50.5t52.5 57q43 41 84 83t82 85q10 14 22.5 6t1.5 -22q-10 -14 -40.5 -50t-64.5 -77t-62.5 -78t-34.5 -51q10 -16 27.5 -29.5t33.5 -25.5q63 -45 127 -88t127 -86q14 -10 4 -21.5t-24 -3.5q-68 39 -135.5 76t-135.5 78q-45 27 -65.5 50t-19.5 46.5 z" />
<glyph unicode="=" horiz-adv-x="538" d="M44 569.5q1 12.5 13 14.5l104.5 11t91.5 8t90 3t106 -4q16 -2 16 -16.5t-16 -14.5q-59 -6 -105.5 -11t-90.5 -8t-91.5 -3t-104.5 4q-14 4 -13 16.5zM75 393.5q1 12.5 13 14.5q92 10 180 8t178 10q16 4 20.5 -10.5t-11.5 -20.5q-92 -35 -180.5 -33.5t-186.5 15.5 q-14 4 -13 16.5z" />
<glyph unicode="&#x3e;" horiz-adv-x="479" d="M33 48q-10 11 4 22q63 43 126.5 86t127.5 88q16 12 33.5 25.5t27.5 29.5q-6 14 -34.5 51t-62.5 78t-64.5 77t-40.5 50t2 22t22 -6q41 -43 82 -85t84 -83q33 -31 52.5 -57.5t20.5 -50t-19.5 -47t-65.5 -49.5q-68 -41 -135.5 -78t-135.5 -76q-14 -8 -24 3z" />
<glyph unicode="?" horiz-adv-x="565" d="M25 942q0 14 10 17.5t18 -7.5q45 6 106.5 13.5t124 8.5t122 -8.5t100.5 -37.5q6 -6 9 -10.5t3 -14.5q-6 -59 -39 -103t-78 -81t-94 -71t-90 -70q-31 -29 -55.5 -54.5t-33.5 -52.5t1 -52.5t53 -51.5q14 -10 4 -21.5t-24 -3.5q-61 33 -73.5 74t6 84t59.5 88t87 84t89 71.5 t65 53.5q23 20 41.5 42.5t22.5 51.5q-31 23 -90.5 29t-122 6t-119.5 -4t-86 0q-10 2 -14 12q0 6 -2 8zM133 78q6 6 8 6h3t3.5 3t8.5 15q4 14 15 14.5t17 -12.5v-6v-4v-4q12 0 17 6q6 16 20.5 12t10.5 -20q2 -14 -6.5 -25.5t-20.5 -19.5t-27.5 -10t-27.5 2q-35 14 -21 43z " />
<glyph unicode="@" horiz-adv-x="1169" d="M34 218.5q-9 78.5 3 157.5t44 151.5t83 127t120.5 86t157.5 27.5q147 -6 279.5 -50t229 -109.5t144.5 -146.5t25.5 -163t-126 -155.5t-310.5 -127.5q-8 -20 -27 -2q-10 14 -14 39t-9 49.5t-12.5 44t-19.5 23.5q-16 6 -45 -2t-62.5 -19.5t-69.5 -21.5t-65.5 -10t-51 13 t-27.5 50q-6 39 15 78t58 70.5t84 53t91 26t79 -11t51 -56.5q4 -14 -8 -18.5t-20 6.5q-14 29 -43 36t-64 -2.5t-70.5 -30t-63.5 -46t-41 -54t-3 -51.5q31 -10 70 1.5t67 19.5q90 23 126 14.5t45.5 -34t7 -62.5t14.5 -74q35 4 81 18.5t91 36t85 47t64 50.5q82 84 79 160.5 t-61.5 140t-156.5 111.5t-205.5 72t-209 19.5t-167.5 -41.5q-90 -51 -138 -136t-57 -180t21.5 -189.5t100.5 -163.5q53 -53 116.5 -88t135.5 -56q51 -14 88 -19t70.5 -6t71.5 2t89 5q16 -2 16.5 -16.5t-16.5 -14.5q-41 -4 -83 -8t-83 -4q-74 2 -153.5 20.5t-153.5 54.5 t-134.5 89t-92.5 125q-31 66 -40 144.5z" />
<glyph unicode="A" horiz-adv-x="1460" d="M-567 988q0 8 8 18q35 10 66.5 21t66.5 11q84 0 192.5 -27.5t228.5 -73.5t245 -104.5t241 -117.5l226 469q53 109 104 219t123 209q10 15 23 15q7 0 16 -5q31 -14 53.5 -43t38.5 -62.5t28.5 -69.5t22.5 -67q78 -219 121 -447t72 -458l45 -366q20 -41 42.5 -116t40 -157 t27.5 -158q9 -63 9 -102q0 -7 -1 -14q-11 -19 -27 -19q-5 0 -11 2q-12 6 -27.5 45t-31 94.5t-31 120t-26.5 125t-19.5 107.5t-10.5 69q-35 59 -84 106.5t-105.5 87.5t-117.5 75t-119 69q-72 41 -165 95.5t-199 113.5l-131 -252q-6 -14 -36 -63t-73 -115.5t-94 -139.5 t-102 -133q-50 -60 -94 -96q-38 -31 -66 -31q-4 0 -8 1q-16 4 -13.5 19.5t19.5 11.5h2q20 1 57 35q39 36 85 94.5t94 128t90 133t71 110.5t35 60q33 63 63.5 126.5t63.5 129.5q-115 61 -237 120.5t-238.5 105.5t-223 76t-190.5 32q-31 2 -61.5 -10.5t-61.5 -20.5 q-16 0 -16 13zM518 694q115 -59 212 -113.5t167 -95.5q102 -59 202.5 -121.5t178.5 -148.5q-35 289 -81 570.5t-130 560.5q-4 8 -15.5 41.5t-25.5 71.5t-30.5 70t-28.5 36q-66 -88 -117 -195.5t-98 -206.5zM1063 1360q2 -2 2 -6q0 4 -2 6z" />
<glyph unicode="B" horiz-adv-x="1255" d="M-580 -254q188 -41 347 -44q14 0 28 -1q145 0 285 29q2 137 7 304t11 341t11.5 341t7.5 306q0 98 -7.5 194.5t-13.5 194.5q-14 -2 -27.5 -2t-23.5 4q-16 6 -10 23q0 2 2 4q12 14 24 2q8 4 16.5 5t16.5 3q-2 34 -2 68t2 69q0 4 4 12l4 5h2q2 0 5 2h2q8 0 12 -11l2 -2v-4 q2 -35 3 -66.5t5 -64.5q81 14 164 14q77 0 155 -12q164 -24 302 -78q20 -8 54 -29.5t62 -50.5q28 -28 42 -62q7 -17 7 -32q0 -16 -8 -32q-33 -72 -86 -124.5t-117.5 -92t-137 -73.5t-142.5 -67q78 13 161 21q67 7 132 7q15 0 31 -1q80 -2 153.5 -15.5t130.5 -44.5 q66 -33 108 -80q42 -48 54 -112q4 -22 4 -47q0 -46 -14 -101q-22 -84 -86 -188q-78 -127 -187.5 -219t-238.5 -157.5t-273.5 -109.5t-287.5 -75q-2 -25 -3 -48.5t-1 -47.5q-4 -16 -17 -16v1q-14 0 -14 17v86q-138 -25 -274 -25q-22 0 -46 1q-158 5 -346 50q-13 3 -13 15 q0 21 19 16zM117 -264q86 18 195.5 53t222 86t221 118.5t195.5 153.5t142.5 189.5t61.5 226.5v7q1 42 -21 74q-24 34 -61 56.5t-80 37t-78 20.5q-97 20 -175 23q-21 1 -42 1q-57 0 -112 -6q-76 -8 -152 -20.5t-164 -22.5q-2 -2 -4 -2v2q-29 0 -33 19.5t15 35.5 q66 41 134.5 74t137.5 66q59 29 118.5 58.5t113.5 68.5q108 78 108 147q0 75 -127 141q-61 33 -128.5 51.5t-139.5 27t-144.5 8.5t-142.5 -3q-18 -8 -41 -10q10 -104 21.5 -204.5t13.5 -204.5q0 -34 1 -69q0 -107 -5 -231q-6 -165 -15 -336t-18.5 -336t-17.5 -300z" />
<glyph unicode="C" horiz-adv-x="1345" d="M7 736v9q-1 109 21 205q22 100 76 168q39 49 68 87t59.5 69t68.5 58.5t93 60.5q141 80 294 114.5t288 38.5q26 1 50 1q105 0 193 -14q108 -17 160 -42l-8 -41q2 4 -39 15.5t-111.5 19.5t-163.5 11q-17 1 -35 1q-77 0 -163 -11q-106 -13 -217 -45t-215 -93 q-80 -47 -150.5 -110.5t-117.5 -147.5q-44 -76 -64 -178q-20 -98 -19 -205v-11q1 -112 24.5 -228t66.5 -219.5t105.5 -185t144.5 -126.5q100 -55 217 -63q30 -2 61 -1q88 -1 174 15q118 22 228 65t196 92q14 8 19.5 -8.5t-11.5 -22.5q-98 -51 -223 -98q-125 -46 -257 -68 q-77 -12 -152 -13q-55 1 -109 7q-129 16 -233 90q-68 51 -126.5 139.5t-100.5 198t-66.5 231t-25.5 235.5z" />
<glyph unicode="D" horiz-adv-x="1314" d="M-57 -172q4 12 18 8q41 -16 80 -33.5t80 -27.5q47 -9 99 -9t108 9q112 18 226 63t223.5 113.5t199.5 150.5t154.5 175.5t89.5 187.5q19 72 19 151q0 24 -2 48q-8 106 -39.5 212.5t-84.5 210t-120.5 192.5t-147.5 159.5t-164 113.5q-74 39 -148 40h-4q-70 0 -134 -28 q-66 -30 -119.5 -85t-86.5 -129q-68 -154 -94 -330t-28 -358v-43q0 -160 13 -317q15 -177 28 -331q14 -10 -0.5 -14t-28.5 4q-4 88 -17.5 203t-24.5 240q-10 126 -18 260q-4 63 -4 123q0 69 4 137q8 127 36 242.5t85 207.5q23 37 43.5 76t51.5 70q49 49 107 80q59 32 121 44 q34 7 68 7q30 -1 58 -5q64 -10 125 -44q127 -72 240.5 -192t195.5 -264t122 -302q26 -103 26 -203q0 -52 -7 -102q-20 -143 -99 -265t-192.5 -220.5t-248 -169t-263.5 -109.5q-47 -13 -96 -27q-43 -12 -87 -12h-13q-86 2 -122 3t-58.5 5t-53 18.5t-108.5 44.5q-9 6 -9 15 q0 3 1 6z" />
<glyph unicode="E" horiz-adv-x="1216" d="M12 768q-4 30 -4 61q0 45 10 91q16 78 48 149.5t69 106.5q125 115 264.5 177t287 96t300 52.5t305.5 46.5q11 -6 11 -18q0 -6 -1.5 -8t-1.5 -6q-78 -14 -204.5 -34t-271 -51.5t-288 -81t-254.5 -123.5q-112 -74 -174 -180q-49 -82 -49 -187q0 -30 4 -62q10 -72 53.5 -107 t108.5 -55q84 -25 174 -29q33 -1 66 -1q57 0 115 4q92 7 182 19.5t174 16.5q12 0 47 3q21 2 43 2q15 0 30 -1q38 -2 70.5 -12t42.5 -35q-88 -100 -189 -188t-189.5 -171t-152 -164t-73.5 -169q-1 -7 -1 -13q0 -46 37 -73q43 -31 111 -44q59 -11 129 -11h22q83 2 158 14 t130 30.5t68 39.5q8 2 9 -6.5t-1 -19.5t-8.5 -22.5t-14.5 -13.5q-29 -18 -93 -36.5t-144 -30.5q-74 -11 -151 -10h-13q-84 1 -150.5 21.5t-105.5 63.5q-30 33 -30 85q0 16 3 34q12 82 75.5 166t147.5 167t177.5 164t166.5 158q-69 19 -147 19h-12q-84 -2 -175 -12.5 t-185 -21.5q-79 -9 -154 -9h-27q-88 2 -169 24.5t-148 79.5q-48 41 -58 115z" />
<glyph unicode="F" horiz-adv-x="1474" d="M-543 453q-4 6 -4 11.5t4 9.5q8 9 21 3q78 -59 152.5 -124.5t160.5 -116.5q123 -72 255 -117t273 -64q-12 86 -20 161q-8 76 -10 152q-1 19 -1 38q0 59 5 125q6 87 22 198q27 184 69 331.5t106.5 267.5t156.5 220.5t219 190.5q80 57 188 77q62 11 125 11q45 -1 91 -7 q108 -14 204.5 -58t151.5 -113q86 -106 114 -224q21 -87 22 -176q0 -31 -3 -63q-10 -121 -50 -241t-89 -228q-53 -123 -136 -230.5t-186.5 -193.5t-224.5 -149.5t-250 -98.5q-99 -25 -213 -34q-54 -4 -110 -4q-62 0 -127 5q6 -47 15 -92t20 -90q55 23 112.5 37t116.5 27 l65 26q172 68 337 142.5t331 156.5q14 4 19.5 -7t-5.5 -22q-147 -72 -291.5 -139t-293.5 -131q8 0 28 4q88 14 176.5 21.5t178.5 7.5q88 0 172 -10.5t170 -30.5q92 -20 139 -88q42 -60 42 -139q0 -10 -1 -21q-10 -154 -89 -270.5t-195 -189.5q-116 -72 -256 -98 q-64 -12 -126 -12q-74 0 -146 17q-132 31 -241.5 120t-167.5 247q-27 72 -59.5 142.5t-54.5 141.5l-27 -4q-18 0 -22.5 13.5t10.5 23.5l2 2h2q6 4 11 6t11 4q-4 16 -8 46l-24 163q-158 16 -304.5 63.5t-250.5 129.5q-78 61 -156 123t-156 121zM348 338q0 -145 19 -287 q62 -6 123 -5q136 0 267 27q191 40 363 144q152 92 262 217q55 63 112.5 160.5t105.5 214.5t76 243q24 107 24 208q0 18 -1 36q-5 118 -50 218t-144 167q-113 73 -222 87q-39 5 -76 5q-69 1 -135 -17q-102 -26 -195 -90t-169.5 -149t-137 -186t-97.5 -203 q-39 -109 -67.5 -236.5t-43 -268t-14.5 -285.5zM424 -225q45 -158 121 -292t186 -233q83 -72 181 -96q64 -16 127 -16q35 0 70 5q99 13 194.5 59t170 116t123 158t54.5 186q1 11 1 22q0 61 -29 99q-34 45 -88 69.5t-118.5 35t-120.5 14.5q-75 5 -158 5q-74 0 -154 -4 q-169 -9 -331 -44q-57 -23 -113.5 -45.5t-115.5 -38.5z" />
<glyph unicode="G" horiz-adv-x="2011" d="M4 518q-4 47 -4 92q0 142 44 270q58 169 188 305t329 226q86 37 173 65.5t179 36.5q94 8 210 19q99 10 201 10h35q120 -2 233.5 -24.5t201.5 -81.5q31 -20 47 -54t39 -65q6 -14 -5 -21.5t-22 4.5q-20 29 -35.5 60t-43.5 49q-80 51 -190.5 73.5t-229.5 26.5q-34 1 -68 1 q-84 0 -166 -7q-114 -10 -200 -28q-178 -37 -342 -109t-285 -184.5t-187 -269.5q-52 -127 -52 -284q0 -39 3 -79q10 -104 38 -203.5t77 -191.5q43 -78 101.5 -139.5t129 -107.5t149.5 -78t163 -52q80 -18 168 -25q50 -3 99 -3q38 0 76 2q87 5 173 20.5t164 38.5t151.5 55.5 t141.5 73.5q66 41 125 102t88 129q4 35 7 72t3 73q-25 76 -133 123q-47 20 -118 31.5t-154 15.5q-37 2 -75 2q-48 0 -97 -3q-89 -5 -171 -17q-31 -12 -57.5 -23.5t-48.5 -19.5q-16 -6 -37 -14.5t-44.5 -16.5t-46 -13t-40.5 -3q-23 8 -23 24.5t17 26.5q41 29 108.5 50.5 t151.5 37.5l80 35q125 51 236.5 82t244.5 47q8 1 17 1q24 0 51 -8q38 -11 71 -34t57.5 -53.5t30.5 -63.5q6 -41 10.5 -77.5t6.5 -73.5q28 -58 28 -118q0 -18 -2 -37q-12 -79 -55 -150q-29 -141 -64.5 -281.5t-50.5 -294.5q-2 -27 -5 -68q-1 -15 -1 -30q0 -25 3 -50 q5 -40 21.5 -73t53.5 -45q18 -4 36.5 -2t35.5 0q16 -2 16 -16.5t-16 -14.5q-23 2 -44 -2q-7 -1 -12 -1q-15 0 -28 7q-51 23 -73 71t-26 106q-1 20 -1 39q0 38 4 75q8 57 14 98q14 104 39.5 208t48.5 208q-70 -80 -162 -121q-98 -43 -153.5 -68.5t-88 -40t-57.5 -21.5 t-62.5 -13t-101 -15.5t-176.5 -27.5q-67 -12 -137 -12q-26 0 -52 2q-98 6 -186 41q-94 39 -176 68.5t-153.5 69.5t-132 101.5t-111.5 163.5q-98 199 -117 391zM1329 541q74 6 145.5 6t134 -6t114.5 -20t85 -34q23 -14 49.5 -26t47.5 -31q-6 47 -23.5 92t-56.5 74 q-45 31 -103 36q-18 2 -37 2q-41 0 -85 -8q-66 -10 -134.5 -33.5t-136.5 -51.5z" />
<glyph unicode="H" horiz-adv-x="1863" d="M108 554q14 34 53.5 65.5t82.5 50.5q37 16 73.5 26.5t75.5 14.5q0 86 -2 188t-3 206.5t-2 206.5v67q0 65 1 122v6l4 6q2 6 12 7q10 0 13 -9v-2q2 -2 2 -6q2 -86 5 -187.5t8 -205.5t9 -205.5t6 -187.5q12 0 24 1q42 0 84 -6q54 -7 108 -20q139 -35 281 -93t265 -146 q135 23 266.5 55.5t262.5 66.5q16 84 31.5 175.5t33.5 173.5q14 68 37 164t46.5 191t44 176t30.5 116q20 37 44 73.5t44 59t34 26.5l4 2q11 0 15 -28q1 -3 1 -6q0 -8 -11 -12q-14 -4 -20 6q-14 -8 -33 -47t-37.5 -96.5t-37.5 -127t-35.5 -137t-31 -126t-22.5 -93.5 q-16 -68 -26.5 -126t-19.5 -113.5t-18.5 -113t-21.5 -124.5q72 20 140.5 38.5t139.5 37.5q16 4 20.5 -10.5t-11.5 -20.5l-295 -82l-19 -115q-29 -190 -46 -378q-7 -82 -7 -164q0 -107 12 -216v21q8 -53 14 -71.5t9.5 -31t10.5 -32t24 -70.5q4 -23 -12.5 -31t-34.5 2 q-27 31 -38.5 48.5t-16.5 34t-7 37t-12 55.5q-14 53 -26.5 96t-27 83t-32 81t-43.5 88q-41 76 -96.5 149.5t-116.5 132.5q-33 35 -66.5 63.5t-70.5 57.5l-19 12h-8q-121 -19 -246 -33q-109 -12 -216 -12h-32q-53 2 -105 5.5t-105 11.5v-39q2 61 2 56t-1 -56t-2.5 -136 t-2.5 -185.5t-3 -205t-2 -192.5q0 -89 -1 -149v-35q0 -30 1 -39q2 -16 -12 -20q-3 -1 -5 0q-10 0 -13 12q1 37 1 71q-1 95 -5 171q-6 104 -10 206q-5 104 -9 222q-2 47 -2 102q0 83 4 184q0 10 1 21.5t1 21.5q-47 10 -92 24.5t-92 26.5q-73 20 -93 52q-11 18 -12 37 q0 15 6 29zM158 537q16 -39 83.5 -64t149.5 -39q2 55 2 110.5v110.5q-68 -10 -129 -37q-33 -14 -61.5 -31.5t-44.5 -49.5zM449 659q2 -59 2 -116.5v-116.5q66 -10 123 -13t85 -5q35 -1 71 -1q78 0 156 6q112 9 228 25q-23 14 -43 26.5t-43 24.5q-41 23 -83 43.5t-87 36.5 q-98 39 -202 67q-90 24 -181 24q-13 0 -26 -1zM1249 420q61 -49 115 -109q94 -106 169 -217t124 -244v30q-1 158 19 314q22 170 55 343q-121 -33 -240 -63t-242 -54zM1720 -293q0 -4 2 -8q-2 2 -2 8z" />
<glyph unicode="I" horiz-adv-x="337" d="M-162 1479q-4 6 -4 11.5t4 9.5q8 9 21 3q28 -15 63 -15h12q42 3 88 20.5t91 44t85 57t71.5 61.5t47.5 53q10 12 20 12q7 0 14 -5q10 -8 10 -18q0 -8 -5 -17q-16 -29 -29.5 -95.5t-22.5 -143.5t-16 -150.5t-14 -114.5q-41 -268 -88 -535.5t-63 -541.5q-1 -14 -1 -34t1 -47 q2 -54 9 -116.5t21.5 -123t36.5 -99.5q-8 25 -14 50.5t2 55.5q6 16 20.5 12.5t10.5 -20.5q-4 -14 -4 -28q1 -25 13 -49q18 -36 20 -78q-3 -18 -15 -18q-7 0 -16 5q-23 14 -40 45t-28 54q-43 82 -58 177q-13 84 -13 169v23q2 97 13 193.5t21 184.5q10 72 19.5 145.5 t21.5 145.5q6 39 15.5 94t19.5 115.5t20.5 120t18.5 106.5q6 31 11 82t12.5 109.5t16.5 120t22 112.5q-47 -37 -107.5 -76t-122 -64.5t-117.5 -29.5h-13q-48 0 -81 27z" />
<glyph unicode="J" horiz-adv-x="1882" d="M16 92q4 53 29 96q20 37 54 66t73 51.5t81 37.5t79 28q109 33 220.5 48t225 22.5t228 9.5t225.5 8q16 -2 16 -16.5t-16 -14.5q-111 -6 -222.5 -10t-224 -13.5t-222 -27t-216.5 -49.5q-72 -23 -143.5 -59t-112.5 -105q-24 -40 -24 -87q0 -42 12 -84q12 -44 33.5 -84 t44.5 -71q74 -104 182 -190t234 -146.5t260 -89.5q95 -20 187 -20q39 0 77 4q68 6 134 23.5t128 48.5q195 96 295 234t131 298q16 81 16 166q0 82 -15 167q-30 173 -96.5 343t-160.5 327.5t-193 284.5q-14 18 -41.5 54t-63.5 79t-78 89t-85 85t-84 67t-74 34q-16 4 -13 20 q2 11 12 11q3 0 7 -1q51 -8 113 -54t126.5 -111.5t128 -142.5t116.5 -148.5t92 -128t55 -80.5q78 -111 149.5 -258.5t114.5 -307t48 -321.5q1 -15 1 -30q0 -145 -49 -269q-63 -168 -165.5 -279.5t-230.5 -173t-274 -76.5q-50 -5 -101 -5q-96 0 -191 18q-148 27 -291 93.5 t-268 166.5q-49 41 -89 88t-85 94q-31 33 -54.5 81t-36.5 102q-9 42 -9 82q0 13 1 26z" />
<glyph unicode="K" horiz-adv-x="1597" d="M-453 487q8 49 47 88t96.5 67t126 47.5t135 31.5t125 19.5t95.5 9.5q12 0 23.5 1t23.5 1q0 23 -1 42t-1 42q0 41 -1 104.5t-2 131t-1 131v104.5q0 92 3 179q1 20 1 40q0 67 -8 137q-4 4 -4 12q2 2 2 8q4 14 13 13.5t18 -10.5q23 -152 23.5 -304.5t4.5 -306.5l13 -319 q44 2 87.5 2t86.5 -2q86 -4 172 -17q18 -4 38.5 -7t41.5 -7q129 88 242.5 190.5t205.5 219.5q18 25 45 66.5t54.5 95t49 111.5t28.5 114q3 23 3 46q0 31 -6 59q-10 48 -49 81q-8 0 -13 6t-1 17v2q7 12 17 12q4 0 7 -2q64 -93 66 -195v-13q0 -95 -36 -189 q-38 -100 -106.5 -195.5t-148.5 -178.5t-160 -150.5t-139 -110.5q102 -27 212.5 -69t212 -99.5t183.5 -130t125 -158.5q95 -190 96 -386q0 -22 -2 -45q-12 -220 -159 -407q-10 0 -17 4l-14 13q-8 12 0 21t20 3l11 -8q45 61 76.5 143t43.5 174q7 52 8 104q0 40 -4 81 q-10 94 -47 180q-49 115 -133 204t-191.5 153.5t-232.5 107.5t-254 68l-94 -62q-74 -47 -149.5 -95t-157.5 -83q12 -188 26.5 -374.5t32.5 -375.5q4 -16 -11 -19t-19 11q-27 186 -47.5 367.5t-36.5 367.5q-72 -29 -144.5 -60.5t-148.5 -53.5q-72 -21 -150 -31q-29 -4 -56 -3 q-45 1 -84 11q-62 18 -96 69q-22 34 -22 89q0 30 6 65zM-397 416q4 -28 17 -51t37 -38.5t52 -17.5q13 -1 26 0q48 1 105 11q72 14 144.5 37.5t139.5 51t114 50.5q-4 59 -8.5 117.5t-8.5 117.5q-10 -2 -18 -2h-19q-37 -2 -89 -7t-111.5 -15.5t-121 -25.5t-113.5 -38.5 t-90 -56.5t-52 -78q-5 -18 -5 -36q0 -10 1 -19zM283 696q2 -53 5 -105t7 -106q86 41 169 89.5t167 101.5q-92 14 -179 19q-48 3 -95 3q-38 0 -74 -2z" />
<glyph unicode="L" horiz-adv-x="1755" d="M22 34q18 64 61.5 126.5t92.5 124.5q45 55 140.5 106t207.5 88t222 51q45 6 84 6q56 0 100 -12q74 -20 121 -31.5t83.5 -22.5t71.5 -27.5t84 -47.5q55 -35 106.5 -75.5t98.5 -83.5q57 109 85 221t32 228q1 24 1 48q-1 93 -13 187q-16 118 -41 239q-16 72 -39 152 t-41.5 162.5t-25.5 164.5q-2 27 -2 54q0 54 9 106q4 16 12.5 29.5t18.5 27.5q-29 -6 -51.5 -18t-46 -26.5t-51 -28t-64.5 -25.5q-78 -25 -160 -26.5t-164 -1.5q-14 4 -13 16t13 14q80 2 158 4t154 27q35 10 66.5 26.5t62 34t62.5 30.5t69 20q25 0 18 -25q-8 -18 -14 -27.5 t-12.5 -15.5t-11.5 -14.5t-7 -26.5q-7 -46 -7 -93q0 -31 3 -63q8 -80 26.5 -159.5t41 -158.5t39.5 -149q41 -175 57 -339q6 -63 6 -127q0 -105 -16 -216q-25 -150 -107 -294q100 -92 199.5 -186.5t216.5 -166.5q141 -86 289.5 -131t300.5 -57q65 -5 132 -5q88 0 177 9 q156 16 311 51q16 4 20 -10q1 -3 1 -6q0 -10 -13 -15q-176 -41 -330 -58q-91 -10 -179 -10q-61 0 -123 5q-148 12 -295.5 58t-311.5 130q-127 66 -227 159t-197 185q-61 -94 -141 -177t-172 -150.5t-192.5 -114.5t-200.5 -70q-78 -18 -170 -20h-21q-82 -1 -164 13 q-92 16 -179 50.5t-150 90.5q-79 70 -99 136q-11 36 -11 71q1 30 9 60zM76 -47q84 -133 196 -201q113 -68 240 -82q41 -5 82 -4q87 0 178 20q133 30 256 96t228.5 157.5t179.5 195.5q10 12 17 25.5t15 27.5q-55 51 -113.5 97.5t-125 83.5t-143 63.5t-166.5 36.5 q-45 5 -91.5 5t-94.5 -5q-96 -10 -186.5 -39t-174.5 -75t-152 -107q-29 -25 -57.5 -57.5t-52 -70.5t-34.5 -81q-6 -23 -6 -45q0 -21 5 -41z" />
<glyph unicode="M" horiz-adv-x="1595" d="M-221 388q0 8 8 18q27 12 56.5 14t58 4t57.5 5t55 15q119 55 233.5 129t211 167.5t167 207t101.5 246.5q0 6 4 14q0 100 -15.5 180t-43 152t-66.5 143.5t-86 153.5l-4 6l4 2q2 11 12 15q3 2 6 1q6 0 13 -6q98 -115 146 -247q49 -132 67 -278q15 -120 15 -246 q0 -27 -1 -55q-4 -155 -12 -312q-2 -55 -8 -147q-4 -69 -4 -139v-47q2 -95 18 -178t59 -126q18 6 38 8t34 14q31 29 57.5 72t49 91t40 93t29.5 80q23 59 41.5 121t34.5 121q20 66 36.5 132.5t33.5 131.5q16 68 28.5 121t22.5 102.5t21.5 100.5t23.5 116q43 205 79 295 q36 91 64 95h3q25 0 45 -62q20 -66 30 -171t10 -234t-10 -250q-12 -183 -26 -357q-13 -152 -13 -315v-45q0 -66 3 -141.5t12.5 -154.5t28 -153.5t50.5 -136.5q27 -47 70 -84t82 -78q1 -4 1 -8q0 -6 -4 -11q-4 -4 -10 -4q-5 0 -12 3q-18 20 -40.5 38.5t-44 38t-41 41 t-31.5 48.5q-68 152 -90.5 317.5t-22.5 336.5t14.5 341t22.5 328q4 68 7 162q2 70 2 139v45q-1 90 -8 157q-6 66 -20 78q-2 2 -5 3q-13 -1 -33 -51q-24 -60 -56 -224q-49 -242 -104 -482.5t-141 -473.5q-8 -23 -29 -74t-48.5 -108.5t-58 -107.5t-61.5 -69q-23 -14 -50.5 -19 t-56.5 -13q-8 -2 -13 0t-13 6q-14 16 -29.5 29.5t-25.5 31.5q-29 57 -38.5 140t-9.5 172.5t6.5 174.5t10.5 144q4 84 9 170t7 172l-10 -27q-41 -109 -112.5 -209t-164 -184t-199 -146.5t-218.5 -95.5q-29 -8 -58.5 -9t-58.5 -1t-58.5 -3t-58.5 -13q-16 0 -16 13z" />
<glyph unicode="N" horiz-adv-x="1468" d="M-285 -252q23 2 44.5 0t39.5 6q27 12 56.5 38t57.5 55.5t50.5 59.5t36.5 50q39 53 86 143t97 200t99.5 228.5t93.5 231t80 208t58 158.5q18 51 31 109q-1 55 -1 108v54q1 80 5 143q2 14 3 33.5t5 38t12.5 35t24.5 24.5q18 6 33 -8q6 -10 6 -52t-3 -90t-7.5 -90t-6.5 -55 q-4 -31 -9 -61.5t-11 -61.5q2 -152 16.5 -301t36.5 -295q8 -59 21.5 -133.5t32 -151.5t43 -149.5t55.5 -130.5q20 -35 52 -61.5t60 -55.5q37 8 75 10.5t71 20.5t67.5 50t65.5 70t56.5 78t41.5 72q74 145 82 302q2 30 2 60q0 127 -28 253q-34 156 -99 305.5t-139 278.5 q-4 8 -26.5 51t-49 93t-52.5 93t-34 51q-10 15 1 23q5 4 11 3q6 0 13 -5q16 -16 26.5 -41t20.5 -47q82 -141 164 -278.5t139 -291.5q35 -92 62.5 -207.5t34.5 -235.5q2 -34 2 -67q0 -86 -13 -168q-18 -114 -76 -204q-27 -41 -51.5 -81t-52 -77t-61 -69.5t-79.5 -59.5 q-49 -29 -99 -38q-21 -4 -42 -4q-27 0 -53 7q-45 12 -83 47t-60 94q-25 66 -53.5 129.5t-43.5 131.5q-16 80 -27.5 137t-20.5 103t-16 87t-12.5 88t-10.5 105.5t-11 140.5l-6 107q-23 -63 -59.5 -160.5t-83 -210.5t-97.5 -231.5t-101 -225t-96 -193.5t-81 -134 q-12 -18 -39 -50t-58.5 -66t-65.5 -61.5t-61 -35.5q-23 -6 -46 -5.5t-46 -1.5q-13 4 -13 15q0 14 13 16z" />
<glyph unicode="O" horiz-adv-x="2340" d="M57 446q-24 80 -23.5 174t23.5 201q16 76 80 155t147 149.5t170 127t148 90.5q113 61 234 105q119 45 231 65q66 12 164 33t196 29q-94 57 -183 98t-167 62q-31 8 -53.5 12t-44 4t-45 -1t-55.5 -1q-14 4 -13.5 16.5t13.5 14.5h23q76 0 146 -12q80 -14 154 -41t143.5 -65 t141.5 -83q57 0 107.5 -9t84.5 -32q8 -8 7 -18l-25 -50l-6 -6q70 -47 141.5 -96t138 -103.5t126 -114.5t108.5 -130q55 -80 98 -168t57 -179q5 -35 5 -70q1 -57 -13 -113q-22 -92 -96 -177q-70 -82 -151.5 -143t-172 -106.5t-188.5 -78t-199 -55.5q-152 -35 -332 -41 q-33 -1 -65 -1q-147 0 -292 22q-177 27 -335.5 92.5t-269.5 174.5t-158 269zM75 568q7 -108 63.5 -208t164.5 -184q158 -123 363.5 -180t422 -57t427 50t380.5 140q68 35 137.5 85t125 113.5t87.5 140.5q27 65 28 139q0 14 -1 28q-6 96 -45 188t-98 166q-45 55 -114.5 126 t-155.5 144.5t-183.5 147.5t-197.5 137q-78 -6 -154 -21.5t-123 -23.5q-135 -23 -270 -64.5t-261 -104t-240 -146.5t-204 -191q-83 -97 -121 -207q-32 -92 -32 -184q0 -17 1 -34zM1536 1546l94 -65l2 2l19 37q-23 12 -51.5 18t-63.5 8z" />
<glyph unicode="P" horiz-adv-x="1327" d="M-188 1280q-1 4 -1 7q0 16 19 16q33 -12 80 -57.5t95 -98.5t89 -105.5t60 -78.5q25 -35 50 -71t52 -77q55 209 147.5 393.5t231.5 329.5q49 53 107.5 94t123.5 72q70 33 151 40q22 2 44 2q59 0 115 -14q78 -18 144 -62t107 -116q27 -45 51.5 -90t49.5 -92q29 -50 43 -110 q11 -46 11 -93q0 -13 -1 -26q-2 -57 -3 -113.5t-5 -114.5q-4 -92 -49 -187t-118 -188.5t-164 -181.5t-186 -167.5t-188.5 -149.5t-167.5 -125q27 -113 31 -223q2 -57 5 -113q1 -24 1 -50q0 -33 -2 -67q-2 -33 -13 -108.5t-30.5 -158.5t-49.5 -154.5t-71 -98.5 q-15 -10 -34 -10h-7q-22 2 -45 0q-33 0 -64.5 52t-59 120t-46 130.5t-24.5 82.5q-12 43 -21.5 86t-19.5 86q-10 41 -17.5 83t-15.5 83q-43 234 -43 497v45q4 288 70 568l-125 182q-14 20 -46 61.5t-70 86.5t-77 87t-69 66q-4 -6 -13.5 -7t-15.5 7zM237 97q5 -300 68 -593 q14 -66 29.5 -135t37 -136t51.5 -129t77 -114q25 2 39 7.5t22 14.5t14.5 24.5t18.5 35.5q18 35 36.5 110t32 165t19.5 182q3 46 3 86t-3 74q-4 49 -11 97t-18 95q-16 -6 -21 6.5t7 22.5l6 6q-47 209 -141 400.5t-211 373.5q-56 -271 -56 -548v-45zM303 743 q59 -90 117.5 -187t110 -198.5t93.5 -204t68 -202.5q123 92 258 194.5t255 222t207 256t116 296.5q10 56 10 121q0 17 -1 33q-3 84 -22.5 169.5t-56.5 166.5t-90 143.5t-125 100.5t-160 40h-9q-110 0 -204 -46q-98 -48 -180 -127t-144.5 -175.5t-103.5 -190.5 q-45 -100 -79.5 -202.5t-59.5 -209.5z" />
<glyph unicode="Q" horiz-adv-x="2029" d="M18 880q-2 23 -2 45q0 49 10 98q15 71 60 130q109 143 276.5 247.5t361.5 166t394 79.5q70 6 136 6q125 0 237 -22q127 -23 248 -78t225 -127q125 -86 204 -196.5t104 -230.5q10 -52 10 -105q0 -71 -19 -144q-33 -128 -133 -251q-39 -47 -85 -86t-89 -80 q-94 -88 -211 -137q20 -35 29.5 -73t23.5 -77q33 -90 65.5 -181t79 -171t114 -141.5t171.5 -94.5q66 -20 134.5 -24t136.5 -15q10 -5 10 -15q0 -15 -17 -15q-80 10 -139 15t-111.5 17.5t-104.5 37t-114 73.5q-37 31 -69.5 67.5t-55.5 82.5q-20 43 -40.5 84.5t-36.5 87.5 q-31 76 -54.5 161.5t-62.5 163.5q-66 -25 -140.5 -48.5t-151.5 -35.5q-58 -9 -116 -9q-19 0 -38 1q-78 4 -148 37q-78 37 -102 75q-14 24 -14 46q0 14 6 28q14 35 57 67t97 55.5t109.5 39t96.5 19.5q14 1 28 1q49 0 88 -12q50 -14 91 -42.5t74.5 -68.5t68.5 -87 q88 47 174 111.5t155.5 139t119 160.5t63.5 179q5 31 5 62q0 63 -19 127q-27 97 -107 196q-72 88 -174 159q-156 109 -328 160t-351 54h-24l-334 -38q-179 -41 -347 -114q-78 -35 -157 -79t-144.5 -101.5t-113.5 -129t-65 -163.5q-5 -35 -5 -70q0 -67 20 -135 q31 -103 95.5 -198t153.5 -177t189 -144.5t202.5 -99.5t192.5 -39q12 -6 10.5 -18t-16.5 -12h-17q-105 0 -214 44q-119 48 -227.5 126t-198.5 174t-144 192q-33 59 -56 129t-30 141zM1051 248q18 -45 62 -69.5t103 -32.5q36 -6 76 -6q24 0 48 2q67 5 130.5 17.5t117.5 31 t89 34.5q-16 27 -34.5 50.5t-40.5 43.5q-57 51 -135 70q-50 12 -100 12l-56 -3q-78 -11 -148.5 -49t-111.5 -101z" />
<glyph unicode="R" horiz-adv-x="1099" d="M-373 1559q8 20 27.5 32.5t44.5 20.5t48.5 12t39.5 8q172 51 363 86q192 34 392 44q61 3 122 4q138 0 275 -16q198 -22 382 -81q51 -16 112.5 -39.5t119 -58.5t103.5 -80t64 -105q11 -33 12 -64q0 -24 -7 -48q-15 -55 -50 -105.5t-79 -93.5t-83 -76 q-160 -135 -325.5 -255.5t-337.5 -241.5q-92 -66 -181 -131.5t-182 -130.5q-20 -16 -43.5 -39t-21.5 -45q2 -18 20.5 -36t41 -33t45 -26.5t32.5 -17.5q29 -14 55.5 -25.5t55.5 -23.5l135 -53q121 -45 240.5 -88t234.5 -103q10 -10 4 -20.5t-18 -5.5q-115 59 -234 99t-241 83 q-47 16 -76 27.5t-53.5 21.5t-52 21.5t-72.5 29.5q-80 33 -118 66.5t-44 66.5q-1 7 -1 15q0 26 16 51q20 33 53.5 64.5t76.5 62t84 61.5l217 156l344 248q6 4 -1 -2.5t-18 -14.5t-19.5 -14t-2.5 -2q33 25 84.5 62.5t109.5 83.5t117.5 96.5t108.5 102.5t82 101.5t39 94.5 q2 12 2 24q1 43 -23 80q-30 47 -82.5 85t-119 67.5t-134 51t-128 35t-97.5 21.5q-275 55 -552 55q-77 0 -155 -4q-355 -20 -702 -159q8 0 14.5 -1t12.5 -1q12 -6 10 -18.5t-16 -12.5l-59 6q-12 5 -12 17q0 3 1 8zM155 1374v12q0 37 5 75q6 44 24 91l2 2q6 6 13 6q3 0 5 -1 q10 -3 9 -17h2l-6 -12q-11 -43 -15 -80q-2 -18 -2 -37t2 -38q4 -38 9.5 -81t11.5 -100q8 -78 13 -126t9.5 -90t8.5 -90t8 -128q13 -183 12 -363q0 -145 -8 -287q-18 -320 -65 -647q-4 -15 -16 -15h-1q-14 1 -14 17q35 325 42 645q2 107 2 214q0 215 -9 432q-4 100 -11.5 217 t-15.5 217q-4 49 -9 95t-6 89z" />
<glyph unicode="S" horiz-adv-x="2113" d="M18 911q-4 35 -4 69q0 74 18 142q26 98 85 178t144 141.5t190 100.5q111 51 229.5 84t241 53.5t246.5 29.5t243 13q60 1 108 1h45q62 -1 116.5 -6t113.5 -13t143 -18q55 -6 55.5 -26t-25 -40.5t-63 -37.5t-51.5 -23q-14 0 -16 10t8 20q88 29 106.5 45.5t-20.5 20.5 q-86 10 -143 17t-110.5 10.5t-114 3.5t-154.5 -3q-92 -4 -214 -14t-255 -33.5t-266 -60.5t-249 -94.5t-203 -135t-126 -180.5q-37 -99 -37 -182q1 -43 11 -83q30 -114 114 -194.5t204 -135t239 -85.5q117 -31 236.5 -51t239.5 -37.5t239.5 -38t236.5 -53.5q72 -18 147.5 -45 t144 -64.5t125 -90t91.5 -125.5q13 -27 13 -57q0 -28 -12 -59q-24 -63 -70 -122t-102 -107.5t-95 -70.5q-150 -84 -286 -142q-135 -56 -273 -84q-124 -25 -255 -25h-28q-145 3 -313 40q-49 16 -98.5 45t-81.5 66q-30 36 -36 81q-1 6 -1 11q0 40 34 84q18 18 66.5 31.5 t104 21.5t107.5 13t83 9q211 20 419 20q50 0 99 -1q256 -6 516 -49q2 0 6 -4q33 29 64.5 62.5t53.5 70.5q20 36 30 74q4 17 5 33q0 20 -7 40q-20 63 -76 110.5t-123.5 81t-139 56t-126.5 37.5q-76 23 -153 36t-155 27q-86 16 -206.5 32.5t-253.5 42.5t-265.5 64.5t-241 101 t-183 150.5t-89.5 211zM483 -424q-3 -8 -3 -16t3 -18q6 -18 19.5 -35t27.5 -27q96 -59 222 -85q122 -25 249 -25h10q132 1 260 24.5t228 62.5q78 31 150.5 74t144.5 84q14 8 29.5 18.5t31.5 22.5q-262 41 -517 42h-18q-246 0 -501 -26q4 0 15.5 1t21.5 2t17.5 1t0.5 0 q-49 -6 -94 -10t-89 -10t-88 -18.5t-89 -34.5q-25 -11 -31 -27z" />
<glyph unicode="T" horiz-adv-x="2285" d="M-8 1192q-4 33 -4 63q0 71 20 129q28 82 85 142.5t135.5 101.5t167.5 66.5t179.5 38t172.5 18.5q123 9 248 8q110 0 220 -6q236 -14 471.5 -48t468 -80t455.5 -91q66 -12 128 -26.5t128 -26.5q55 -11 82 -27q26 -16 26 -26q0 -11 -30 -9q-29 2 -84 29l-258 51 q-98 20 -196.5 40t-196.5 36q-244 41 -489.5 77t-493.5 48q-119 8 -238 10h-40q-99 0 -197 -8q-66 -4 -156 -16.5t-181 -38t-172 -68.5t-130 -109q-25 -35 -44.5 -85t-24.5 -105l-2 -28q0 -40 12 -78q14 -52 55 -87q33 -27 77.5 -42t93 -22t95.5 -8t84 -1q135 2 270 22.5 t268 52t264.5 70.5t258.5 80q25 8 68.5 21.5t92 30t92.5 33.5t66 36q0 20 10 31q16 12 37 4q25 -23 15 -49q12 -47 32.5 -100.5t30.5 -80.5q14 -45 27.5 -85t26 -79.5t23.5 -80.5t21 -89q27 -113 42.5 -229.5t19.5 -232.5l297 41q-27 -29 -94.5 -44.5t-202.5 -33.5 q0 -203 -48 -395.5t-165 -366.5q-53 -78 -138 -157t-185.5 -143.5t-208 -106.5t-201.5 -48q-37 -2 -74 -6q-18 -2 -37 -2t-39 2q-121 14 -194.5 70.5t-106.5 138.5q-29 73 -29 158v21q4 97 39 189.5t96.5 171.5t143.5 126l107.5 64.5t109.5 57.5q203 98 423 158t443 94 q-4 158 -30.5 312.5t-73.5 312.5q-6 16 -20.5 52t-31 81t-34 92t-25.5 88q-37 -23 -87 -42t-96 -34.5t-81 -24.5t-43 -11q-31 -10 -62.5 -20.5t-64.5 -20.5l-194 -56q-59 -16 -120 -30.5t-122 -26.5q-66 -14 -167 -33.5t-210 -32t-208 -13.5h-8q-94 0 -149 24 q-45 18 -84.5 32.5t-72.5 36t-54.5 55.5t-29.5 93zM752 -580q20 -111 82 -168q61 -56 142 -76q51 -12 106 -13q33 1 67 5q92 12 176 39q129 45 243.5 118t206 169t155.5 215t93 254q39 176 39 359q-219 -37 -433 -96.5t-410 -155.5q-100 -49 -194.5 -108.5t-163 -137.5 t-101.5 -178q-19 -57 -18 -122q-1 -49 10 -104z" />
<glyph unicode="U" horiz-adv-x="1994" d="M-510 1454q-2 4 -2 7q0 8 8 16q100 68 216 111.5t233 74.5q66 18 142.5 35.5t141.5 23.5q49 6 80 8q7 1 14 1q25 0 52 -7q59 -10 84.5 -13t44 -9t41 -18.5t73.5 -38.5q68 -35 96 -99q30 -63 34 -142q1 -18 1 -36q-1 -63 -13 -130q-16 -87 -40 -169t-51 -152.5t-43 -115.5 q-29 -72 -58.5 -140.5t-58.5 -140.5q-25 -66 -51 -131t-47 -133q-25 -87 -24 -152q1 -44 11 -78q28 -85 104 -123q70 -34 169 -35q9 0 21 1q114 4 241 38t258 92t243 128t192.5 146.5t109.5 148.5q23 129 32 259t25 259q6 39 13.5 100.5t18.5 128t23.5 127t26.5 95.5 q8 23 25 6q41 -39 63.5 -104.5t31.5 -141.5q7 -62 8 -128q0 -15 -1 -29q-2 -81 -11 -153.5t-23.5 -128t-28.5 -81.5q-16 -57 -51 -106.5t-72 -96.5q-10 -14 -21.5 -41t-23.5 -41q-11 -102 -19 -219q-4 -63 -5 -126q-1 -55 3 -111q6 -120 29 -241.5t70 -232.5q3 -14 -9 -18 q-4 -1 -6 -1q-8 0 -14 7q-57 119 -85 228.5t-35 219.5q-4 59 -4 118q0 52 3 104q6 112 19 239q-143 -154 -326.5 -264t-382.5 -176q-91 -29 -187 -45q-76 -13 -146 -13q-18 0 -34 1q-84 4 -152.5 29.5t-109.5 80t-49 140.5q-1 15 -1 32q0 76 30 176q31 104 73 206t86 202 t86 201.5t72 206.5q43 147 43 263.5t-48 194.5t-148 114q-71 25 -172 25q-42 0 -88 -4q-70 -4 -143.5 -19t-141.5 -34q-113 -31 -228.5 -72.5t-215.5 -109.5q-15 -6 -21 6zM1769 496q68 86 106 186t50 206q6 49 6 97q0 57 -8 113q-14 106 -51 198q-6 -41 -16.5 -97 t-19.5 -109.5t-15.5 -95.5t-8.5 -54q-16 -111 -19 -222.5t-24 -221.5z" />
<glyph unicode="V" horiz-adv-x="616" d="M-45 1032q6 16 20.5 12t10.5 -20q0 -4 15 -32.5t37.5 -68.5t46.5 -85t40 -82q66 -147 113 -297t92 -305q14 117 34.5 233.5t49.5 230.5q55 209 138 392.5t191.5 348.5t241.5 315.5t289 293.5q6 5 12 5q5 0 9 -4t4 -9t-5 -12q-170 -164 -303 -326t-236.5 -338t-179 -370.5 t-129.5 -421.5l-1 -6l-2 -14t-2 -12t-1 -1l6 33q-23 -104 -39 -210l-32 -212q-4 -23 0 -46.5t-2 -46.5q-8 -16 -29 -18q-20 6 -30.5 23.5t-14.5 41t-7 47t-7 40.5q-25 96 -50.5 188t-52.5 186q-29 86 -59.5 170t-69.5 166q-6 14 -24.5 44t-36.5 63q-17 32 -29 62 q-9 22 -9 35q0 4 1 7z" />
<glyph unicode="W" horiz-adv-x="1771" d="M22 27q2 47 7.5 93t9.5 83q29 229 87 448t130 436q6 16 20.5 12.5t10.5 -20.5q-37 -125 -67 -227t-53.5 -197.5t-42 -191.5t-34.5 -211q-6 -43 -12 -91q-6 -49 -7 -97v-19q0 -39 3 -76q4 -47 18 -88q8 -20 25.5 -32.5t32.5 -28.5q23 2 43 0t38 4q61 20 120 66.5 t106 106.5t78.5 126.5t37.5 132.5q-13 58 -13 108q0 13 1 25q-2 6 -2 23l8 -2q10 14 28.5 13t22.5 -24v-4l9 -110q18 -100 66 -209t120 -196t161 -137q67 -38 141 -38q24 0 48 4q117 20 212 99t163 186.5t104.5 227.5t36.5 222q0 104 -30.5 205t-75.5 193 q-74 154 -183.5 286t-230.5 250q-47 47 -101 101.5t-113.5 103.5t-123 89t-131.5 59q-16 4 -13 19q2 12 13 12q3 0 6 -1q84 -23 176.5 -85t181.5 -139t165.5 -158t130.5 -140q111 -125 208 -269.5t142 -310.5q20 -72 28 -122q6 -39 5 -76v-19q-2 -45 -9.5 -94t-17.5 -123 q-12 -96 -74.5 -202.5t-152.5 -194.5t-199 -142q-85 -42 -167 -41q-23 0 -46 3q-80 12 -151.5 57t-131 112.5t-106.5 151.5t-76 170q-18 -43 -47 -84t-59.5 -78.5t-61.5 -70.5t-55 -56q-37 -37 -83 -59q-46 -21 -91 -25q-6 0 -13 -1q-38 1 -74 19q-42 22 -69 73 q-17 33 -23 78q-4 35 -5 72q1 10 1 20z" />
<glyph unicode="X" horiz-adv-x="1632" d="M34 -274q-1 24 -2 47q0 67 10 132q13 87 43 172t75 175q127 250 319.5 451.5t419.5 367.5q-88 98 -181 188.5t-190 178.5q-72 66 -146.5 131t-160.5 114q-14 -4 -18 8.5t6 22.5q125 -57 239.5 -149t221.5 -189q72 -66 140.5 -133t133.5 -139q74 53 149.5 101t153.5 95 q109 66 219.5 126.5t212.5 131.5q10 8 21 3q2 0 3 -1t3 -2q4 -4 4 -12v-6l-6 -16q-4 -8 -13.5 -9.5t-13.5 3.5q-115 -86 -237.5 -157t-241.5 -149q-51 -35 -105.5 -71.5t-109.5 -77.5q154 -172 259.5 -337t178 -340t117.5 -368.5t78 -423.5q4 -16 -11.5 -19t-19.5 11 q-37 205 -85 403.5t-132 389.5q-78 180 -188.5 341t-241.5 308q-117 -92 -235.5 -196.5t-224 -220t-192.5 -241.5t-141.5 -261.5t-70.5 -277.5q-5 -44 -6 -88q0 -99 26 -202q4 -16 -11 -19q-3 -1 -5 -1q-11 0 -15 12q-25 101 -29 193z" />
<glyph unicode="Y" horiz-adv-x="1671" d="M-1136 1402v4q0 7 8 15l-2 2h6l10 7h10q133 35 261 64.5t268 37.5q33 1 67 1q59 0 121 -4q98 -7 193.5 -30.5t181.5 -65.5t150.5 -105.5t101.5 -151.5q32 -80 32 -181v-22q-2 -72 -4 -125t-7 -103.5t-13 -103.5t-25 -125q-12 -51 -34.5 -126t-41 -157.5t-25.5 -164.5 q-2 -21 -2 -41q0 -58 15 -107q23 -6 44.5 -14t43.5 -10q63 0 129 17t128.5 44t123 59.5t113.5 61.5q197 104 390 230t353 286q-29 98 -66.5 198.5t-68.5 204t-47 207.5q-8 51 -8 103t8 104q8 51 28.5 95t54.5 75t80 42q20 5 43 5q28 0 60 -8q123 -31 186.5 -108.5 t83.5 -177.5q10 -56 10 -115q0 -46 -6 -95q-16 -108 -49 -198q-35 -92 -97 -178t-146 -170q39 -143 48 -278q4 -65 4 -132q0 -75 -5 -154q0 -4 -1 -9t-1 -9q29 -10 49 -37t45 -47q14 -10 4 -21.5t-24 -3.5q-20 16 -39 40t-41 36q-12 -51 -35 -106.5t-51.5 -108.5t-58 -101 t-54.5 -83q-80 -111 -180 -211q-72 -72 -158 -141.5t-182 -129t-199.5 -100.5t-208.5 -53q-38 -4 -77 -4q-65 0 -131 13q-103 20 -197 85q-115 94 -143 183q-12 41 -12 81q0 45 16 88q32 80 110 149.5t174 128t196.5 102.5t178.5 73q96 37 218 75t251 65.5t255 38.5 q55 5 107 5q67 0 127 -8q10 49 13.5 99.5t3.5 107.5q-2 88 -15.5 163t-35.5 156q-86 -80 -182.5 -152.5t-192.5 -136t-189.5 -117.5t-169.5 -95q-35 -18 -86 -45t-110.5 -53.5t-123 -49t-123.5 -33.5q-38 -6 -74 -6q-20 0 -40 2q-53 6 -90 37q-23 18 -29 52q-4 24 -4 49 q0 11 1 22q2 37 8 69.5t10 51.5q12 57 32.5 138t41 167t38 172t25.5 154q6 45 9 97q2 31 2 63q0 22 -1 44q-2 54 -10 106t-26 95q-47 119 -137.5 189.5t-204 106.5t-244.5 40q-31 1 -62 1q-99 0 -198 -10q-129 -13 -250 -40t-215 -55q-14 0 -18 9zM-64 -656q-4 -23 -4 -44 q0 -30 8 -60q15 -51 47.5 -97t78.5 -83q70 -55 152 -74q60 -13 122 -13q23 0 47 2q86 7 169 33.5t155 61.5q117 55 226.5 135t205.5 175.5t175 206t132 227.5q18 43 31.5 81.5t23.5 79.5q-33 3 -72 3q-32 0 -68 -2q-79 -5 -157 -16t-148.5 -25.5t-113.5 -26.5 q-111 -27 -246 -67t-267 -97t-249.5 -131t-193.5 -168q-43 -49 -54 -101zM1337 1356q-1 -20 -1 -38q0 -38 3 -69q6 -80 24.5 -155.5t43.5 -151.5t51.5 -149.5t48.5 -149.5q35 37 66 77t59 81q45 68 82 145.5t52 159.5q9 47 9 94q0 35 -5 70q-11 82 -60 155q-29 45 -77 84 t-103 52q-26 6 -48 6q-38 0 -64 -19q-40 -28 -59.5 -79.5t-21.5 -112.5z" />
<glyph unicode="Z" horiz-adv-x="1513" d="M-23 1609q0 8 9 17q156 47 308 50q27 1 54 0q126 0 258 -11q55 -4 138 -14.5t179.5 -28.5t197 -46t189.5 -67t158.5 -90t103.5 -117q25 -49 25 -107q-1 -20 -3 -40q-12 -82 -83 -182q-39 -55 -75.5 -111.5t-81.5 -109.5q-121 -145 -264.5 -272.5t-287 -252.5t-277.5 -259 t-236 -294l12 -28q20 -2 39.5 -7.5t40.5 -3.5q102 8 201.5 35t197.5 56q160 47 316.5 97t314.5 101q16 4 20.5 -10t-12.5 -20q-129 -43 -258 -88.5t-262 -86.5q-78 -25 -156.5 -50t-160.5 -44q-47 -10 -95.5 -19t-97.5 -20q-12 -2 -24 -2q-15 0 -29 3q-26 5 -53 10 q-41 6 -40 39.5t29.5 85t81 115t113.5 130t124.5 131t119 116.5t93.5 87t46 43q61 55 122.5 110.5t121.5 112.5q100 98 201.5 202.5t168.5 234.5q48 92 54 168q1 11 1 21q0 63 -28 113q-33 60 -98.5 106t-159.5 81q-123 45 -281.5 81t-327.5 54q-123 13 -244 12 q-45 0 -89 -2q-164 -6 -297 -43q-17 0 -17 14z" />
<glyph unicode="[" horiz-adv-x="440" d="M55 942v85t3 143.5t12.5 142t27.5 82.5q20 18 55 16t72 -12t72 -20.5t57 -6.5q8 0 17 -10v-8q4 -14 -9.5 -19.5t-19.5 4.5q-47 0 -104.5 13.5t-108.5 13.5q-14 -74 -18.5 -157t-3 -167t4.5 -166.5t3 -158.5q2 -182 1 -374.5t-1 -375.5q49 -4 97 4.5t95 12.5 q14 -2 16.5 -13.5t-12.5 -17.5q-25 -2 -54.5 -9t-58 -12.5t-58 -6.5t-54.5 9q-12 8 -12 23q0 242 -12.5 492.5t-6.5 492.5z" />
<glyph unicode="\" horiz-adv-x="708" d="M27 1280q-4 16 10 20t20 -12q4 -14 16.5 -32.5t28 -37t28.5 -35t22 -26.5q57 -84 106 -173t94 -181q106 -219 175 -448.5t126 -465.5q0 -14 -11 -16t-19 8q-68 231 -146 455.5t-176 441.5q-41 92 -86 181.5t-96 175.5q-23 35 -49.5 70.5t-42.5 74.5z" />
<glyph unicode="]" horiz-adv-x="413" d="M2 1354v8q8 10 16 10q20 -4 56.5 6.5t73 20.5t71.5 12t55 -16q18 -16 27.5 -82t12.5 -142.5t3 -143v-85.5q6 -242 -6 -492.5t-12 -492.5q0 -14 -12 -23q-25 -10 -54.5 -9t-58.5 6.5t-58.5 12.5t-54.5 9q-14 6 -12 17.5t17 13.5q47 -4 95 -12.5t97 -4.5q0 182 -1 375 t1 375q0 76 3 158.5t4 166.5t-3 167t-18 157q-51 0 -108.5 -13.5t-104.5 -13.5q-6 -10 -19.5 -4.5t-9.5 19.5z" />
<glyph unicode="^" horiz-adv-x="456" d="M41 1393.5q-14 17.5 2 38.5l63 55q33 35 67 78t95 86q18 12 41 -12.5t42.5 -61.5t32.5 -76t15 -53q4 -16 -11 -19.5t-19 11.5q-8 45 -36 77.5t-50 69.5q-27 -23 -50.5 -49.5t-48 -54t-50 -53t-56.5 -44.5q-23 -10 -37 7.5z" />
<glyph unicode="_" horiz-adv-x="923" d="M58.5 -28.5q0.5 12.5 13.5 14.5q80 8 187.5 24.5t219 26.5t216 10t175.5 -22q12 -6 10.5 -18.5t-16.5 -12.5q-88 16 -181 3t-181 -22q-109 -10 -215 -16t-215 -4q-14 4 -13.5 16.5z" />
<glyph unicode="`" horiz-adv-x="307" d="M23 1661q-10 14 1 22.5t23 -2.5q33 -31 59.5 -51t49 -41.5t46 -52.5t50.5 -80q6 -14 -5 -21.5t-22 5.5q-12 14 -37.5 37.5t-54.5 52.5t-58 62.5t-52 68.5z" />
<glyph unicode="a" horiz-adv-x="448" d="M18 133q-1 9 -1 17q1 30 17 61q22 39 58.5 70.5t83.5 53t91 25.5q10 1 19 2q33 0 60 -12q35 -16 51 -57q4 -14 -8 -18.5t-20 6.5q-12 29 -42 36q-13 3 -26 3q-18 0 -39 -6q-35 -10 -70.5 -30t-63.5 -45.5t-41 -54t-3 -51.5q15 -5 31 -5q18 0 39 6q39 11 67 20 q68 18 105 18q14 0 24 -2q35 -10 44 -39q7 -24 7 -54v-15v-6q0 -36 21 -72q2 -5 2 -9q0 -9 -7 -13q-4 -3 -8 -2l-14 7q-10 14 -14 39t-9 49.5t-12.5 44t-19.5 23.5q-16 4 -45 -3t-62.5 -18.5t-69.5 -21.5t-65.5 -10t-51 13t-28.5 50z" />
<glyph unicode="b" horiz-adv-x="595" d="M0 346v5q0 10 6 18q6 10 15.5 9t11.5 -9q12 0 18 4q-4 86 -4 168t4 168q4 66 7 132t8 134q10 133 24 260q6 41 16.5 107.5t28 135t41.5 126.5q26 58 58 82q16 12 35 12t40 -12q43 -24 97 -115q82 -158 114 -324q18 -93 17 -183q-1 -70 -11 -138q-24 -154 -108 -287 t-234 -227q-18 -10 -35.5 -21.5t-37.5 -21.5q0 -27 2 -40.5t5 -24.5t5 -26.5t0 -46.5q35 27 97 45q62 17 128 19h15q57 1 106 -13q55 -16 78 -51q5 -7 5 -11q0 -3 -5 -13q-29 -35 -79 -73t-108 -68q-60 -32 -118 -50q-44 -14 -78 -13q-11 0 -21 1q-14 6 -12 16.5t16 14.5 q5 -1 10 0q27 -1 71 15q54 20 109.5 49.5t103.5 63.5t65 56q-16 27 -70 33q-27 3 -56.5 3t-59.5 -3q-62 -6 -118.5 -23.5t-74.5 -35.5q-8 -8 -7 -42t1 -76t-6 -81t-27 -57q-8 -2 -14 -2q-4 0 -8 1q-8 3 -19 13q-6 18 -6 38.5t-2 39.5q-1 24 -1 45.5t1 39.5q2 36 6 69.5 t7 71.5q2 23 2 50q0 18 -1 39q-8 -4 -16 -5t-17 -3q-10 -2 -20 12zM108 438q1 -12 1 -22l51 35q98 68 168.5 161t110.5 200q41 108 51 224q4 40 3 80q-1 74 -13 148q-20 112 -71 215.5t-133 187.5q-41 -45 -64.5 -96t-36.5 -106.5t-19 -114t-15 -119.5q-23 -193 -30 -385 q-4 -112 -4 -224q0 -80 2 -161q-1 -8 -1 -16v-7z" />
<glyph unicode="c" horiz-adv-x="475" d="M24 152q-1 6 -1 13q0 23 18 46q25 31 50.5 49.5t54 28.5t61.5 13t72 7q14 -2 16 -13t-12 -17q-23 -4 -47.5 -6.5t-49.5 -12.5q-37 -12 -62.5 -34.5t-31.5 -48t10.5 -48.5t65.5 -35q51 -12 94 -12q16 0 31 2q55 6 127 14q16 -2 16 -16q0 -9 -12 -14q-61 -14 -90 -21.5 t-49.5 -10.5t-47 -3t-81.5 4q-25 2 -54.5 18.5t-50.5 41.5t-27 55z" />
<glyph unicode="d" d="M32 89q-4 13 -4 26q0 27 15 59q29 59 76 94.5t108 53.5q31 8 60 12q-23 141 -38.5 282.5t-25.5 284.5q-2 23 -6 70t-7 103t-4 116v24q0 46 3 90q4 54 15.5 93t31.5 53q8 1 14 1h6q8 -1 17 -11q23 -23 40 -54.5t30.5 -65.5t25.5 -67.5t25 -62.5q59 -129 109 -262 q49 -132 65 -266q5 -42 5 -84q-1 -90 -23 -178q-34 -128 -140 -246l-59 -62q16 -90 38.5 -170t59.5 -151.5t91 -136t132 -121.5q8 -6 8 -12q0 -5 -4 -9q-6 -7 -13 -7q-5 0 -11 3q-82 55 -138.5 119.5t-94.5 136.5t-61.5 150.5t-41.5 166.5q-25 -18 -51.5 -32.5t-55.5 -24.5 q-27 -8 -54 -8q-16 0 -31 3q-42 7 -71 29.5t-41 60.5zM94 72q20 -22 52 -29q13 -3 26 -4q21 0 43 8q31 10 58.5 27.5t52.5 40.5l-19 100q-4 23 -7 43.5t-7 42.5q-53 -6 -108.5 -33.5t-88.5 -70.5q-24 -35 -23 -66q0 -36 21 -59zM270 1124q0 -17 -1 -35q-1 -97 7 -193 q8 -114 20.5 -227.5t27.5 -224.5l12 -112q52 -11 72 -72q4 -16 -11.5 -19t-19.5 11q-8 20 -15.5 31.5t-21.5 15.5l20 -149l35 36q96 111 124 235q17 76 17 154q0 48 -6 97q-18 127 -67 253t-105 242q-18 39 -34.5 89.5t-40.5 93.5q-11 -112 -13 -226z" />
<glyph unicode="e" horiz-adv-x="573" d="M-74 152q-4 6 -4 11t4 10q8 9 21 3q24 -15 60 -15q11 0 22 1q51 6 104 22q27 51 63.5 95.5t65.5 70.5q12 12 32 22q18 11 40 15q10 2 19 2q11 0 23 -3q20 -5 32 -24q10 -16 6 -34.5t-15.5 -36t-26 -31.5t-22.5 -20q-29 -23 -78 -47.5t-106 -42.5q-15 -33 -15 -61 q0 -9 1 -17q4 -31 38 -39q22 -5 48 -5q13 0 26 1q41 4 81 14t58 16l123 43q16 4 20 -10q1 -3 1 -6q0 -10 -12 -14q-41 -16 -81 -32.5t-81 -33.5q-33 -10 -67 -18t-68 -11q-53 0 -85 11.5t-45.5 33t-12.5 50t14 61.5q-45 -10 -87 -10h-14q-48 2 -82 29zM207 213l57 29 q20 12 31.5 21t20 18.5t16.5 20.5t22 30q-4 1 -7 1q-9 -1 -19 -7q-14 -10 -31 -23q-18 -16 -43 -38.5t-47 -51.5zM362 326l3 -2z" />
<glyph unicode="f" horiz-adv-x="708" d="M-147 315q-1 5 -1 8q0 10 7 13q10 6 20 -4q4 -8 15.5 -12.5t25.5 -5.5t27.5 -2t19.5 -3q14 -2 28 -2q89 0 198 66q6 74 12 147.5t14 149.5q2 33 6 94t8.5 136t9.5 156t13 152.5t18.5 127t24.5 79.5q12 12 26 12q7 0 13 -2q53 -31 80.5 -84t54.5 -104q70 -139 97 -243 q17 -64 17 -124q0 -37 -7 -73q-17 -92 -81.5 -180.5t-179.5 -194.5q-16 -16 -33.5 -30.5t-35.5 -29.5l-8 -110t-9 -111q20 2 35 4t30 5.5t35.5 8.5t51.5 15q66 23 127 60.5t121 70.5q14 4 19 -7t-5 -22q-53 -31 -93 -52t-74 -38.5t-65.5 -30t-68.5 -22.5q61 -4 121.5 -16.5 t122.5 -46.5q98 -55 146 -146.5t54 -193.5q2 -18 2 -35q0 -85 -27 -171q-32 -104 -93 -186q-18 -25 -49 -52t-66 -44.5t-73 -17.5t-70 31q-31 29 -68 53t-53 63q-20 45 -43 88t-33 90q-12 63 -21.5 117.5t-15.5 107t-9 106.5q-2 32 -2 70q0 25 1 52q0 25 1 50.5t3 49.5 q-10 12 0 23q4 51 7 100t7 101q-59 -33 -122 -46q-30 -6 -63 -6q-34 0 -71 7q-23 4 -45 10t-34 24zM231 -4q0 -106 7.5 -218t35.5 -216q12 -41 27.5 -82t40.5 -78q57 -86 112 -106q25 -10 48 -10q29 0 55 14q47 26 85 85.5t63 131.5t31 147q2 22 2 44q0 51 -10 98 q-15 69 -55 128.5t-112 100.5q-80 47 -161 53t-169 6v-98zM254 416q10 8 19.5 15t19.5 18q109 100 169 185t74 171q5 29 5 59q0 60 -19 125q-28 98 -98 228q-20 39 -39.5 76.5t-50.5 66.5q-10 -35 -11 -79t-6 -73q-14 -135 -21.5 -271t-19.5 -273q-6 -63 -12 -125t-10 -123z " />
<glyph unicode="g" horiz-adv-x="585" d="M-266 -766q-8 16 -8 32q0 22 14 45q24 40 64 75.5t82 63.5t63 38q154 84 316.5 128t334.5 50q-10 55 -31.5 121t-49 122t-60.5 95t-66 43h-6q-26 0 -70 -15q-49 -18 -100 -30q-31 -7 -58 -7q-18 0 -34 3q-41 8 -49 61q-3 19 -3 37q0 30 8 60q13 49 39.5 91t63.5 74.5 t80 53.5q44 22 83 22q12 0 23 -1q48 -9 64 -70q4 -16 -11 -19.5t-20 10.5q-12 39 -43 45q-8 2 -17 2q-23 0 -51 -12q-38 -18 -76 -55t-64.5 -80t-33.5 -89q-2 -11 -2 -22q0 -33 17 -63q15 -3 30 -3q26 0 53 9q42 14 83 28.5t81 17.5h7q37 0 72 -27q33 -25 64.5 -69t58 -97.5 t46 -113.5t29.5 -122h41q12 0 47 -3t75 -9t77 -16.5t57 -27.5q14 -11 14 -26q0 -6 -2 -12q-8 -21 -55 -49q-16 -6 -21 6t7 22q10 6 19.5 11.5t15.5 15.5q-4 18 -36 29.5t-75 16.5t-87 5h-70q2 -26 2 -51q0 -35 -4 -68q-9 -55 -37 -96q-35 -49 -70 -86t-74 -68.5t-84 -60 t-98 -57.5q-127 -70 -257 -70h-7q-133 2 -256 78q-20 12 -27.5 37t-17.5 47zM-212 -732q-2 -7 -2 -14q0 -31 34 -63q41 -39 99 -51q39 -8 80 -8q21 0 43 2q64 6 133 27.5t131.5 52t113.5 65.5t84 68q27 29 44 50t27.5 43.5t16.5 49.5t14 64q2 12 2 31.5t-4 41.5 q-139 -8 -303 -50t-328 -136q-25 -14 -67.5 -41t-75.5 -60.5t-42 -71.5z" />
<glyph unicode="h" horiz-adv-x="567" d="M-40 333q-3 4 -3 8q0 5 6 11q27 20 53.5 33.5t55.5 26.5q4 139 12 276t31 273q14 84 34.5 165.5t53.5 159.5q45 113 104 221l41 70q56 79 104 101q28 13 53 13q17 -1 33 -7q38 -16 67.5 -60.5t53 -103t40 -121t28.5 -111.5q26 -105 26 -187v-5q-1 -84 -27 -158 t-78 -141.5t-128 -143.5q-70 -66 -159 -126t-177 -101q-29 -16 -57 -25q0 -23 -1 -19.5t-1 11.5v11.5t0 -19.5q0 -14 -1 -46t-2 -72t-1 -85v-88q20 53 56 101.5t85 70.5q13 6 25 6q19 0 37 -14q28 -24 51.5 -64t42 -81t33.5 -58q10 -10 21 -19t22 -20q14 -10 3.5 -21 t-24.5 -3q-27 25 -50.5 60.5t-44 70.5t-40 64.5t-37.5 39.5q-20 12 -39.5 -3t-30.5 -27q-29 -35 -49 -70t-30 -78q-4 -16 -2 -39.5t2 -47t-4 -43t-13 -28.5q-5 -1 -10 -1q-9 0 -19 4q-12 14 -20 55t-12 94t-5 111q0 29 -0.5 55.5t0.5 51.5q1 50 2 85t1 43v-45v35 q-51 -20 -90 -51q-14 -4 -22 5zM129 436q16 6 31.5 14.5t32.5 18.5q82 49 171 110.5t163.5 136.5t124.5 164t55 195v14q1 67 -17 137q-20 77 -41 148q-10 35 -21.5 73t-27.5 73.5t-39.5 65.5t-56.5 48q-43 -12 -75 -47t-57.5 -78t-46 -89t-36.5 -85q-90 -213 -122 -441 t-38 -458z" />
<glyph unicode="i" horiz-adv-x="192" d="M56 468q0 16 18 32q11 3 18 3h3q7 -1 18 -11q12 -2 15 -13.5t-7 -15.5q0 -4 -8 -8q6 -6 0 -19l-7 -8q-10 -10 -20 -4t-6 18q-24 8 -24 26zM59 -70q-2 36 -2 72.5t2 73.5q4 74 15 145v-14q4 23 4.5 51.5t-15.5 44.5q-7 11 1 21q5 6 11 6q4 0 9 -2q35 -25 43 -77 q5 -30 4 -62q0 -25 -2 -51q-6 -60 -19.5 -118.5t-19.5 -91.5q-4 -15 -16 -15h-2q-14 1 -13 17z" />
<glyph unicode="j" horiz-adv-x="370" d="M-531 -679q1 79 14 150.5t38.5 131t60.5 94.5q51 49 80 78.5t47.5 46t32.5 26t38.5 19.5t64.5 25.5t110 44.5q16 4 20.5 -10.5t-12.5 -20.5q-66 -29 -113 -47.5t-85.5 -40t-73.5 -55t-78 -95.5q-47 -68 -72.5 -158t-25.5 -182t27.5 -179t90.5 -148q63 -63 145 -82 q46 -10 92 -10q37 0 74 7q83 15 157.5 58t127.5 104q51 61 81 139t44 154q15 79 15 161q0 8 -1 16q-1 90 -14 176q-14 92 -34.5 165.5t-55.5 157.5q-18 43 -42.5 85t-48 85t-42 87t-25.5 91q0 16 15 19h16q14 -2 16.5 -15.5t-12.5 -15.5q10 -43 29.5 -84t42.5 -80t46.5 -78 t41.5 -78q35 -74 64.5 -163.5t37.5 -171.5q8 -86 17 -184q3 -30 3 -59q0 -66 -15 -126q-10 -37 -21.5 -82t-27 -89t-38 -84t-55.5 -69q-74 -66 -126 -102.5t-105 -54t-117 -19.5q-17 -1 -35 -1q-55 0 -129 5q-47 4 -83 37t-74 58q-45 31 -74 87t-42 127q-12 65 -12 138v11z M61 612q0 8 9 17q11 20 15 20q1 0 2 -1q3 -7 13 -9q12 10 20 -1q4 -5 4 -11t-5 -13q-2 -20 -13 -21h-4q-10 0 -24 5q-17 0 -17 14z" />
<glyph unicode="k" horiz-adv-x="763" d="M-182 426q-5 6 -5 12q0 8 9 15l35 22q14 4 19 -7t-5 -22l-2 -2q49 4 105.5 13.5t115.5 25.5q12 113 33.5 256.5t56.5 281.5t85 257t120 184q10 6 21 6h6q51 -18 99 -80.5t83 -139.5q34 -78 54 -152q15 -57 15 -93q0 -11 -1 -20q-10 -61 -21.5 -118.5t-56.5 -108.5 q-92 -106 -200 -172t-237 -125l-14 -6q-5 -63 -5 -126v-21q1 -73 11 -144q6 -35 19.5 -64.5t23.5 -62.5q10 18 13.5 39.5t13.5 40.5q29 53 76 97t96 75q61 39 103 48t57.5 -7.5t1 -54t-65.5 -95.5q6 1 11 1q36 -1 77 -23q47 -26 92 -59.5t84 -62t64 -30.5q16 -2 16 -16.5 t-16 -14.5q-45 8 -85 36t-83 55.5t-91 49t-110 21.5q-12 -2 -19 7.5t-1 19.5q20 33 52 63.5t42 69.5q-12 4 -27.5 -1t-31 -14.5t-28.5 -18.5t-22 -15q-43 -29 -77.5 -65t-65.5 -79q-8 -12 -16.5 -43.5t-20.5 -57.5q-11 -26 -29 -34q-4 -2 -8 -2q-16 0 -39 25q-25 29 -40 79 t-21 105q-6 56 -7 106v31q0 29 1 49l6 80q-35 -8 -77 -15t-81 -11q-26 -3 -48 -3q-12 0 -22 1q-30 2 -38 14zM137 498q121 41 230.5 111.5t175.5 172.5q39 59 52 120q8 40 8 78q0 21 -2 42q-7 59 -28.5 118.5t-52.5 119.5q-8 16 -18 39.5t-23.5 46t-30 41t-36.5 22.5 q-31 -31 -53.5 -75t-40 -92t-31 -96t-25.5 -87q-39 -131 -73.5 -273.5t-51.5 -287.5z" />
<glyph unicode="l" horiz-adv-x="354" d="M-4 163q0 8 8 17q18 8 37.5 13.5t36.5 17.5l18 16q-16 84 -27.5 173t-17.5 173t-8 160q-1 25 -1 49q0 46 3 84q0 16 2 57.5t4 94.5t6 113.5t12.5 114.5t18.5 98.5t25 64.5q33 47 71 96q14 14 29 14q7 0 14 -3q25 -20 50.5 -39t44.5 -45q14 -16 24 -41t21 -45 q71 -141 71 -287v-4q0 -144 -41 -285q-41 -143 -112.5 -282.5t-147.5 -266.5q16 -76 39 -147.5t55 -136.5q23 -47 59 -85t68 -79q4 -11 -3 -19q-4 -4 -10 -5q-5 0 -11 3q-35 41 -71 80t-64 86q-31 51 -54.5 121t-42.5 151l-6 -6q-16 -12 -38.5 -18t-45.5 -16q-16 0 -16 13z M100 568q4 -152 31 -304q45 88 92 189.5t85 208t60 214.5q17 88 17 173q0 21 -1 39q-5 102 -45 194t-124 166q-43 -59 -65.5 -132t-33 -151t-12.5 -155.5t-4 -147.5t-2 -144t2 -150z" />
<glyph unicode="m" horiz-adv-x="641" d="M-33 365q-5 7 -5 12q0 6 6 10q5 4 11 3q7 0 13 -5q47 -51 73.5 -107.5t40.5 -117.5q14 31 44 73.5t67 74.5t75 39q6 1 11 1q31 0 57 -35q26 -34 26 -83v-15q0 -45 7 -82q70 53 106 80t53 20.5t22.5 -47.5t13.5 -125q1 -3 1 -6q-1 -11 -13 -13q-16 -3 -19 11q-4 35 -5 71 t-15 69q-16 -10 -40 -33t-34 -33q-45 -41 -68.5 -49t-37 5t-17.5 42t-7 59.5t-8.5 59t-21.5 41.5q-43 -4 -72.5 -37t-51 -77t-35 -92t-21.5 -81v-10q-2 0 -2 1t-2 1q-9 -17 -25 -17q0 1 -2 1q-18 2 -22 22v6v21q0 91 -16 173q-18 92 -87 169z" />
<glyph unicode="n" horiz-adv-x="598" d="M39 330q-4 6 -4 11t4 10q5 5 11 5q4 0 9 -2q27 -12 43.5 -49t26.5 -82t16.5 -87t12.5 -64q29 23 50 63.5t44 71.5q16 20 46 48q26 24 51 25q4 0 7 -1q37 -6 61.5 -20.5t41 -36t29 -49.5t24.5 -58q6 -16 13 -39t20 -35q8 -6 8 -12q0 -5 -4 -9q-10 -12 -25 -4 q-18 16 -29.5 39t-20.5 47.5t-19.5 47t-28.5 36.5q-36 30 -63 30q-8 0 -16 -3q-32 -12 -59.5 -48t-56 -83t-67.5 -78q-7 -2 -13 -2q-11 0 -22 6q-29 23 -35 67t-7 93t-8 93t-40 69z" />
<glyph unicode="o" d="M9 177q9 42 52 85q25 25 57 40t66.5 26.5t70.5 16.5t67 7q21 2 41 2q30 0 56 -4q44 -6 75 -51q6 -14 -5.5 -21.5t-21.5 5.5q-25 33 -85 33q-2 0 -3 1q-59 0 -124 -18q-67 -18 -122 -51t-67 -70q-4 -10 -1 -22.5t3 -24.5q39 -39 97 -50q35 -7 73 -6q24 0 48 2 q64 7 123.5 28.5t100.5 50.5q0 14 -2 20q-53 31 -108.5 50.5t-114.5 39.5q-16 4 -13.5 19.5t19.5 11.5q18 -6 56 -14.5t79 -20.5t76 -27.5t47 -31.5q8 -10 9 -31.5t1 -28.5q-2 -10 -10 -20q-25 -18 -39 -29.5t-27.5 -18.5t-33 -14.5t-52.5 -15.5q-47 -13 -111 -21 q-44 -6 -82 -5q-18 0 -34 1q-55 6 -95 28q-39 22 -57 54q-12 21 -12 48q0 13 3 27z" />
<glyph unicode="p" horiz-adv-x="802" d="M8 303q4 12 19 8q23 -6 40 -31.5t30.5 -61.5t23.5 -80t16 -89q10 47 24.5 92t37.5 88q25 43 67.5 89.5t95 80t108.5 49.5q30 9 60 9q25 0 50 -6q25 -4 50 -6.5t44 -18.5q14 -12 31.5 -28.5t28.5 -35t14 -40.5v-5q0 -19 -15 -41q-14 -23 -26.5 -46t-34.5 -40 q-35 -20 -68 -40.5t-67 -43.5q-53 -33 -112.5 -48t-119.5 -38q-14 0 -16 10.5t8 20.5q12 4 51 18.5t88 35t101.5 48t92.5 58.5t58 65q10 18 10 35t-10 35q-25 45 -75 54q-18 3 -36 3q-34 0 -70 -11q-56 -15 -107.5 -42.5t-75.5 -52.5q-74 -72 -106 -168t-39 -203 q-4 -67 -4 -135q0 -39 1 -79q2 -53 2 -103.5t-2 -97.5l2 -37q-6 4 -18 8q-10 -4 -20.5 -1t-14.5 13h-2v6q-4 119 -7 237t-14 234q-2 37 -4 60.5t-4 41t-5 35t-9 46.5q-4 -6 -6 10t-6 24q-8 23 -18.5 54t-33.5 41q-9 6 -9 14q0 3 1 6z" />
<glyph unicode="q" horiz-adv-x="667" d="M-229 -349q0 9 8 17q172 57 327.5 88t315.5 35l6 68q2 45 6 88t10 86q2 12 5.5 35.5t11.5 52.5q-39 -23 -86 -49.5t-97.5 -46t-101.5 -25.5q-13 -2 -25 -2q-38 0 -73 14q-39 16 -45 48q-2 9 -2 19q0 24 11 51q15 38 45 79t63.5 75.5t64.5 59.5t47 33q74 33 104.5 48 t54 21.5t59.5 9.5t120 13q14 -2 16 -13.5t-12 -17.5q-45 -6 -90 -9t-88 -17q-43 -12 -110.5 -48t-125 -86.5t-88.5 -108.5q-17 -30 -17 -59t15 -57q18 0 37 -4t35 0q23 6 60.5 19.5t81.5 32t88 41t79 46.5q16 39 41 64q17 16 39 16q11 0 23 -4q16 -4 18 -16t-6 -27 q-12 -18 -29.5 -33.5t-38.5 -27.5q-16 -47 -23 -95.5t-11 -95.5l-17 -178q90 -2 181.5 -11t189.5 -30q94 -18 134 -68.5t41 -117.5v-4q0 -64 -29 -136q-31 -73 -81.5 -138.5t-111 -114t-119.5 -62.5q-40 -9 -73 -9q-37 0 -65 12q-55 22 -85.5 73t-43 122.5t-13.5 150.5v21 q0 68 6 136q6 78 12 141q-168 -8 -334 -43t-299 -75q-16 0 -16 13zM464 -402q-2 -40 -2 -79t2 -77q3 -75 13 -135.5t33 -90.5q25 -35 58 -46q24 -9 49 -9q9 0 18 1q35 4 68.5 19.5t62.5 34.5q18 12 46 39.5t57.5 65.5t55 84t40.5 97q4 14 4 27q0 18 -7 35q-12 30 -16 61 q-29 20 -55.5 43t-61.5 35q-78 31 -168 43q-77 10 -160 10h-28q-6 -76 -9 -158z" />
<glyph unicode="r" horiz-adv-x="378" d="M16 340q-1 4 -1 8q-1 10 7 14q10 6 21 -6q25 -33 41 -68.5t27 -76.5q23 72 70.5 132t131.5 120q6 5 11 5q6 0 10 -6q4 -5 3 -11q0 -6 -5 -13q-66 -55 -105 -111.5t-56 -114.5t-17 -119.5t10 -125.5q2 -29 -22 -36q-5 -2 -9 -2q-17 0 -29 20q-4 29 -7 55.5t-3 52.5 q-10 78 -28.5 157t-49.5 126z" />
<glyph unicode="s" horiz-adv-x="333" d="M25 -14q47 6 88 22q23 10 35 16.5t32 18.5q39 27 44 46.5t-10 36.5t-44 32.5t-57.5 32t-48 36t-17.5 43.5q2 35 32 63.5t67.5 45t73.5 17.5h3q33 0 49 -19q4 -12 -3 -19.5t-21 -1.5q0 2 -2 4q-12 0 -39 -6t-51.5 -17t-41 -27.5t-12.5 -35.5q6 -25 37 -38t62.5 -28 t56.5 -42q23 -25 23 -71v-7q0 -31 -27 -53.5t-51 -34.5q-20 -10 -38 -16.5t-40 -14.5q-45 -10 -100 -14q-14 4 -14 16q0 13 14 15z" />
<glyph unicode="t" horiz-adv-x="387" d="M-3 374q-1 2 -1 3q0 7 10 12q10 6 28.5 13.5t41.5 15.5q8 41 14 71.5t8 42.5q4 25 6.5 49.5t6.5 49.5q6 13 15 13h1q10 -1 14 -15q-2 -29 -8 -81t-14 -118q57 16 119.5 28.5t107.5 20.5q16 4 20 -10q1 -3 1 -6q0 -10 -13 -14q-53 -23 -105 -45.5t-110 -34.5q-8 -2 -14 -3 t-12 -1q-5 -67 -7 -131q0 -9 -1 -17q1 -55 9 -103q10 -56 31 -94t60 -51q27 -8 54.5 -6t53.5 -2q16 -2 16.5 -16.5t-16.5 -14.5q-29 0 -58.5 -1t-57.5 -3q-61 0 -93 43t-44 107q-9 48 -8 104q0 19 1 39q4 78 15 146q-10 0 -18.5 -1.5t-18.5 -3.5q-4 -2 -11 -2h-10 q-10 6 -13 16z" />
<glyph unicode="u" horiz-adv-x="327" d="M23 256v4q0 16 14 17.5t18 -15.5q6 -57 18.5 -121.5t67.5 -109.5q20 8 37 51t27 95t15 101.5t7 71.5q6 13 15 13h2q10 -1 14 -15q0 -42 2 -100v-21q0 -47 -7 -93q-9 -56 -33.5 -102t-74.5 -65q-5 -1 -8.5 -1t-5.5 1q-4 2 -14 6q-66 59 -80 129t-14 154z" />
<glyph unicode="v" horiz-adv-x="313" d="M24 352q2 12 12 11q3 0 7 -1q20 -4 34.5 -40.5t26 -84t19.5 -91.5t16 -62q23 47 52.5 89t52.5 87q10 12 21 7q8 -4 8 -12q0 -3 -1 -7l-21 -56t-34.5 -83t-39 -79t-32.5 -42q-8 -4 -16 -4q-14 0 -25 14q-29 57 -36 124t-17 126q-4 23 -7 49.5t-9 34.5q-12 3 -12 14 q0 3 1 6z" />
<glyph unicode="w" horiz-adv-x="636" d="M33 115q2 47 6 100t12 106.5t21.5 103.5t38.5 91q7 8 15 8q3 0 6 -1q11 -5 7 -19q-18 -41 -31.5 -99.5t-20.5 -121t-7 -124t6 -104.5q29 14 48.5 52t33.5 65q12 16 27.5 13t23.5 -19q6 -41 30.5 -97.5t61.5 -96.5t82 -47q5 -1 10 -1q40 0 82 51q23 27 37.5 54.5 t18.5 60.5q4 23 4 47q1 27 -5 55q-10 52 -28 101t-44 96t-50 90q-4 16 6 21.5t20 -4.5q27 -43 59 -93.5t56.5 -104.5t34.5 -110q4 -24 5 -47q0 -32 -9 -63q-29 -109 -84 -158q-53 -47 -112 -47h-4q-62 2 -120.5 55.5t-91.5 151.5q-29 -41 -56.5 -61.5t-48 -18.5t-32.5 30 q-9 21 -9 58q0 13 1 27z" />
<glyph unicode="x" horiz-adv-x="448" d="M23 410q-4 6 -4 11t4 10q8 9 20 3q45 -23 86 -67.5t80 -102.5q31 61 73 114.5t103 96.5q6 5 11 5q6 0 10 -6q8 -11 -3 -23q-53 -49 -92 -112t-69 -128q53 -88 96 -178t78 -156q2 -5 2 -9q0 -8 -8 -12q-4 -3 -8 -3q-7 0 -13 8q-47 70 -92 137.5t-88 136.5 q-18 -43 -35.5 -85t-36.5 -83q-8 -10 -19.5 -8t-11.5 16q16 55 33 109.5t37 108.5q-31 59 -65.5 118.5t-87.5 98.5z" />
<glyph unicode="y" horiz-adv-x="499" d="M-74 -633q-5 7 -5 12q0 6 7 11q11 8 23 -2q49 -53 109 -68q30 -8 59 -8t57 7q57 15 106.5 58t77.5 105q33 72 53.5 166t21.5 190v8q0 92 -23 178q-23 91 -76 154q-74 -35 -127 -88q-35 -35 -60.5 -40t-44 11.5t-30 47t-17.5 67.5t-8 74q-1 19 -1 35.5t1 31.5q0 16 13 19 h4q11 0 14 -14q4 -113 26 -154q20 -39 54 -39h3q36 2 84 34t107 66q20 -4 40 -26.5t34 -50t24.5 -55t14.5 -44.5q8 -27 12 -54.5t8 -55.5q9 -55 9 -119v-20q-2 -76 -18.5 -153t-45.5 -146.5t-70 -120.5q-43 -53 -100 -82t-116 -32h-14q-53 0 -104 20q-59 24 -102 77z" />
<glyph unicode="z" horiz-adv-x="344" d="M37 430q143 -6 203.5 -11t66.5 -28q8 -8 4 -22.5t-8 -26.5q-14 -49 -34.5 -81t-45 -60.5t-50.5 -57t-48 -71.5l18 -27l258 -63q11 -5 11 -16v-2q-2 -12 -17 -13q-59 4 -106 9t-87 15.5t-72 30t-58 51.5q-4 14 0 27l24 49.5t17.5 27.5t23 25.5t37.5 42.5l12 17 q-4 -4 -4 -6q18 25 34.5 49t27.5 53q-10 8 -18.5 18.5t-22.5 14.5q-41 12 -83 15t-83 9q-13 4 -13 15q0 14 13 16zM174 229q4 8 8 11z" />
<glyph unicode="{" horiz-adv-x="536" d="M27 1227q14 59 51 96t86 62.5t102.5 43t102.5 37.5q16 4 20 -10t-12 -20q-31 -14 -61.5 -25.5t-63.5 -26.5q-35 -20 -73 -35.5t-66 -48.5q-37 -43 -37 -79.5t18.5 -72.5t47 -70t46.5 -68q25 -47 36.5 -83t8 -67t-18.5 -60.5t-42 -68.5q0 -4 2 -4q10 -14 25.5 -25.5 t27.5 -23.5q35 -31 43.5 -80t-4.5 -92q-16 -61 -42.5 -121.5t-48 -116t-32 -106.5t4 -94t62.5 -78t142 -58q63 -14 131 -20q16 -2 16.5 -16.5t-16.5 -14.5q-33 2 -88 8.5t-111.5 21.5t-103.5 39.5t-61 61.5q-33 84 -21.5 154t37 135.5t52 132t24.5 146.5q0 25 -15.5 42 t-33 31.5t-33.5 29.5t-20 38q-4 29 12 45t31.5 38.5t19.5 59.5t-27 105q-12 31 -35.5 60.5t-45 61t-34 65.5t-3.5 71z" />
<glyph unicode="|" horiz-adv-x="200" d="M68 35v309t1 329t3 328.5t3 308t3 267.5q0 16 13 18t18 -14q6 -133 10 -285.5t5 -314.5t0 -325.5t-4 -321.5t-8.5 -302.5t-11.5 -264.5q-4 -16 -17 -15.5t-13 17.5q-2 119 -2 266z" />
<glyph unicode="}" horiz-adv-x="561" d="M27 -104.5q0 14.5 16 16.5q68 6 131 20q94 23 142.5 58t62.5 78t4 94t-31.5 106.5t-48.5 115.5t-43 122q-12 43 -4 92t43 80q12 12 27.5 23.5t25.5 25.5q2 0 2 4q-27 39 -42 68.5t-18 60.5t8 67t36 83q18 35 47 68.5t47.5 69.5t18.5 72.5t-37 79.5q-29 33 -67 48.5 t-73 35.5q-33 14 -63.5 25.5t-60.5 26.5q-16 6 -12 20t20 10q49 -20 102 -37.5t102.5 -43t86 -62.5t51.5 -96q8 -37 -4.5 -71t-34 -65.5t-45 -61.5t-35.5 -60q-31 -68 -27 -105t19.5 -59.5t32 -38.5t12.5 -45q-4 -23 -20.5 -38t-34 -29.5t-33 -32t-15.5 -41.5 q-2 -80 25 -146.5t52.5 -132t36.5 -135.5t-21 -154q-14 -37 -61.5 -61.5t-104 -39.5t-111.5 -21.5t-88 -8.5q-16 0 -16 14.5z" />
<glyph unicode="~" horiz-adv-x="571" d="M38 347q-7 9 3 20q23 23 43 44t43 42q43 43 73.5 32.5t55.5 -40t45.5 -64.5t44.5 -41q20 -6 41 0t40 17.5t38.5 24.5t38.5 21q14 4 19 -7t-5 -21q-25 -14 -58.5 -38t-68.5 -37t-67.5 -10t-57.5 42q-16 25 -29.5 50.5t-37.5 41.5q-39 -10 -73 -33.5t-67 -48.5 q-14 -4 -21 5z" />
<glyph unicode="&#xa1;" horiz-adv-x="229" d="M76 933.5q2 20.5 18.5 31t40.5 -14.5q14 -4 11 -16t-13 -14v-7h2q-2 0 6 -4q16 -6 12 -20t-20 -10q-33 -4 -46 15t-11 39.5zM79 185.5q3 103.5 9 205t12 191.5t9 153q0 16 13 17.5t17 -15.5q8 -131 7 -260t-7 -260q-2 -41 -5 -65.5t-7 -46t-8 -48t-6 -71.5 q-4 -16 -17.5 -14t-13.5 18q-6 92 -3 195.5z" />
<glyph unicode="&#xa2;" horiz-adv-x="565" d="M25.5 296q3.5 42 27 84t56 74.5t55.5 43.5q49 23 74.5 33t44.5 16v70.5t2 72.5q0 16 13 18.5t17 -14.5l13 -141q18 2 44.5 3t73.5 5q14 -2 16.5 -13t-11.5 -18q-37 -6 -66 -10t-53 -8q6 -76 11 -149.5t9 -147.5q37 4 73 9t73 9q14 -2 16 -13t-12 -17q-37 -6 -74 -18.5 t-74 -18.5q2 -109 0 -215q-2 -12 -14 -15.5t-16 11.5l-19 213q-4 0 -7 1t-7 1q-57 4 -85 5t-47.5 5t-39 16.5t-60.5 40.5q-37 25 -33.5 67zM103.5 284.5q17.5 -34.5 65.5 -55t120 -18.5h12q-6 72 -10 144.5t-6 144.5q-23 -8 -45.5 -19.5t-49.5 -29.5q-66 -45 -85 -88.5 t-1.5 -78z" />
<glyph unicode="&#xa3;" horiz-adv-x="1024" d="M12 12q-8 23 15 41l14 4q143 51 241.5 149.5t114.5 268.5q2 29 1 54.5t-3 48.5q-51 -2 -100 -1t-100 5q-14 4 -13.5 16t13.5 14q49 4 97 8.5t95 8.5q-8 45 -16.5 85t-3 78.5t29 80.5t78.5 92q53 47 117.5 66.5t128 19.5t118 -13.5t87.5 -31.5q16 -2 16 -16.5t-16 -14.5 q-53 12 -103.5 24.5t-101.5 12.5t-104.5 -18.5t-110.5 -65.5q-37 -31 -56.5 -66t-25.5 -71.5t-2 -76.5t10 -81q59 2 117.5 1t118.5 -5q16 -2 16 -16.5t-16 -14.5q-57 -6 -113.5 -11t-112.5 -7q8 -55 13 -109q4 -86 -25 -155.5t-80 -127.5q41 20 83 35t89 19q25 2 48.5 -9.5 t46 -28t43 -33.5t38.5 -28q53 -31 85 -52t59.5 -30.5t62.5 -6.5t94 22q16 4 19.5 -8.5t-10.5 -22.5q-35 -27 -81 -33t-93.5 3.5t-89.5 33t-68 55.5q-14 8 -32.5 22.5t-40 29t-42 26t-37.5 11.5q-41 0 -79.5 -14.5t-76.5 -36t-75 -44t-74 -37.5q-31 -14 -60.5 -24t-60.5 -21 l-53 -18h-10l-17 6v2z" />
<glyph unicode="&#xa4;" horiz-adv-x="1220" d="M23.5 -48q-7.5 9 3.5 19q41 41 78.5 82t87.5 70q6 2 17 7t23.5 11t21.5 11.5t13 11.5l-61 82q-10 12 -13.5 32.5t-4.5 41t-1 36v17.5q-4 59 39 125.5t105 126.5q-12 20 -25.5 35.5t-27 32t-28.5 39t-30 54.5q-4 16 6.5 21.5t20.5 -4.5q35 -33 68.5 -68t45.5 -82 q55 49 111.5 88t97.5 60q25 12 69 31.5t91 32t90 9t66 -35.5q6 -6 0 -21q-8 -8 -29 -10q-10 4 -13 11t1 13q-20 10 -55 5t-73 -18t-73 -29.5t-53 -26.5q-39 -20 -90 -58t-101.5 -86.5t-92.5 -104.5t-59.5 -112.5t-3 -110.5t76.5 -100q49 -35 124.5 -51t160.5 -14t170 23.5 t150.5 61.5t102.5 97.5t29 132.5q-6 59 -30.5 101.5t-59.5 77t-77 65.5t-83 68q-8 12 0 21t20 3q35 -29 60.5 -48t46.5 -36q53 16 98 47t99 49q14 4 19 -7t-5 -21q-43 -37 -82 -63.5t-90 -34.5q25 -18 38 -32t25.5 -34.5t26.5 -54t41 -92.5q14 -33 3 -75t-35.5 -82 t-55.5 -72t-55 -44l-29 -14q25 -6 50.5 -24.5t50 -41t44 -46t29.5 -38.5q14 -10 4 -21t-25 -3q-39 27 -74.5 51t-68.5 57q-10 10 -17.5 23.5t-19.5 13.5q-10 4 -12 8q-20 -10 -40.5 -20t-43.5 -21q-43 -23 -115.5 -34t-149.5 -9t-147.5 20.5t-107.5 59.5q-16 -25 -51 -54.5 t-73 -56t-73 -49t-49 -30.5q-14 -4 -21.5 5z" />
<glyph unicode="&#xa5;" horiz-adv-x="808" d="M14 1020q8 8 19 6q63 -25 107 -77t83 -112.5t80 -117.5t98 -92q6 2 13 0q39 61 71.5 112.5t69.5 96.5t83 85t107 78q12 10 20.5 -1t-1.5 -23q-23 -18 -36 -31.5t-24.5 -26t-24.5 -28t-34 -37.5q-25 -25 -64.5 -74t-76.5 -96t-61.5 -83t-16.5 -34q0 -16 -1 -21t-2 -8.5 t-1 -4.5v-7q0 -10 1 -17t1 -15q88 6 166 10t110 -10q14 -8 10.5 -20.5t-20.5 -8.5q-8 2 -30.5 -1t-34.5 -7q8 2 15 2t3 0q-41 -8 -97.5 -18.5t-115.5 -14.5l4 -98q55 4 110.5 5t110.5 -3q16 -2 16.5 -16.5t-16.5 -14.5q-55 -6 -109 -12t-108 -11q2 -43 5 -79.5t3 -70.5 t-3 -70t-11 -77q-4 -16 -17.5 -15t-13.5 18q8 59 -5 124.5t-21 165.5h-69.5t-69.5 4q-14 4 -13.5 16.5t13.5 14.5l135 14q-2 33 1 50.5t3 50.5v2q-55 -2 -105.5 7t-85.5 32q-12 6 -9 17t13 14h11q4 0 8 -5q31 -4 74 -4t90 4q0 18 -1 27.5t0 16t4 13.5t9 23q-2 8 -26.5 37 t-63.5 74t-89 107.5t-102 142.5q-2 4 0 1t7 -7q-31 47 -49.5 64.5t-45.5 33.5z" />
<glyph unicode="&#xa7;" horiz-adv-x="1024" />
<glyph unicode="&#xa8;" horiz-adv-x="409" d="M57 1586.5q0 15.5 13.5 25.5t44.5 0h2q10 0 14 -15v-4v-2q4 -12 0 -24.5t-20 -16.5q-27 -6 -40.5 7.5t-13.5 29zM88 1567q8 4 12 4l2 4q-4 -2 -7 -3t-7 -5zM90 1585q4 0 8 8q-4 -4 -8 -6t0 -2zM250 1586.5q0 15.5 13 25.5t44 0h2q10 0 15 -15v-4v-2q4 -12 -0.5 -24.5 t-20.5 -16.5q-27 -6 -40 7.5t-13 29zM281 1567q8 4 12 4l2 4q-4 -2 -7 -3t-7 -5zM283 1585q4 0 8 8q-4 -4 -8 -6t0 -2z" />
<glyph unicode="&#xa9;" horiz-adv-x="1396" d="M27 322q-12 37 4 79.5t49 86.5t77 85t89 77t83 62.5t60 39.5q47 29 94 52t97 44q45 20 92 33.5t94 29.5q14 6 50 14.5t74 12.5t70.5 0t43.5 -23q6 -8 0 -18q-10 -12 -24 -19.5t-28 -15.5q-16 -6 -21 6.5t7 22.5q6 4 12 5t11 5q-147 0 -286.5 -57.5t-262.5 -134.5 q-45 -29 -87 -58.5t-81 -64.5q-104 -92 -137 -174t-7.5 -148.5t105.5 -113t201 -68.5q100 -18 206.5 -14t210 28.5t197.5 72.5t168 120q55 51 86 112.5t33 123t-31 117.5t-107 99q-47 29 -97 43.5t-99 32.5q-12 8 -8 20.5t18 8.5q27 -10 54.5 -15.5t54 -12.5t52 -17 t46.5 -29q31 -27 62.5 -51.5t58.5 -56.5q41 -51 44 -106.5t-15.5 -109t-51.5 -103.5t-63 -91q-29 -37 -71 -61.5t-81 -53.5q-45 -31 -96 -49t-105 -35q-57 -16 -142 -30.5t-176 -16.5t-175 11.5t-141 52.5q-76 53 -116 92t-59.5 68.5t-24.5 51t-11 38.5zM538.5 466 q-6.5 30 16.5 58q25 31 50.5 49.5t54 28.5t61.5 13.5t72 7.5q14 -2 16 -13.5t-12 -17.5q-23 -4 -47.5 -6t-49.5 -13q-37 -12 -62.5 -34.5t-31.5 -48t10.5 -48t65.5 -34.5q70 -16 125 -10.5t127 14.5q14 -2 16 -13.5t-12 -17.5q-61 -14 -90 -21.5t-49.5 -10.5t-47 -3t-81.5 4 q-25 2 -54.5 18.5t-50 42t-27 55.5z" />
<glyph unicode="&#xad;" horiz-adv-x="456" d="M33 313.5q4 12.5 18 8.5q31 -10 68 -8.5t78 7t87 11.5t97 4q16 -2 16 -16.5t-16 -14.5q-25 -4 -65 -16.5t-86 -19.5t-96 -4t-93 28q-12 8 -8 20.5z" />
<glyph unicode="&#xae;" horiz-adv-x="1406" d="M27 322q-12 37 4 79.5t49 86.5t77 85t89 77t83 62.5t60 39.5q47 29 94 52t97 44q45 20 92 33.5t94 29.5q14 6 50 14.5t74 12.5t70.5 0t43.5 -23q6 -8 0 -18q-10 -12 -24 -19.5t-28 -15.5q-16 -6 -21 6.5t7 22.5q6 4 12 5t11 5q-147 0 -286.5 -57.5t-262.5 -134.5 q-45 -29 -87 -58.5t-81 -64.5q-104 -92 -137 -174t-7.5 -148.5t105.5 -113t201 -68.5q100 -18 206.5 -14t210 28.5t197.5 72.5t168 120q55 51 86 112.5t33 123t-31 117.5t-107 99q-47 29 -97 43.5t-99 32.5q-12 8 -8 20.5t18 8.5q27 -10 54.5 -15.5t54 -12.5t52 -17 t46.5 -29q31 -27 62.5 -51.5t58.5 -56.5q53 -68 55 -134.5t-30.5 -130t-92 -120t-126 -101.5t-132 -76.5t-113.5 -46.5q-57 -16 -142 -30.5t-176 -16.5t-175 11.5t-141 52.5q-76 53 -116 92t-59.5 68.5t-24.5 51t-11 38.5zM588 512q2 37 27.5 66.5t59.5 46t71.5 19.5 t61 -12.5t29 -49t-23.5 -88.5q-10 -20 -26.5 -39t-32.5 -37q45 -35 90 -63.5t86 -69.5q14 -10 4 -21.5t-25 -3.5q-47 41 -102 67.5t-105 65.5q-8 14 -8 25q10 35 39 60.5t39 60.5q10 37 -5 45t-40 -0.5t-49.5 -26.5t-32.5 -35q-8 -18 -12 -54t-5 -76t0 -74t1 -46 q0 -14 -13.5 -16t-17.5 12q-6 59 -9 122t-1 122z" />
<glyph unicode="&#xb0;" horiz-adv-x="477" d="M16.5 1471.5q8.5 44.5 46 88.5t89.5 66q-8 16 12 21q31 0 61.5 -2.5t59.5 -8.5q37 -6 76.5 -25.5t61 -46t16.5 -60.5t-56 -68q-47 -33 -108.5 -48.5t-118.5 -19.5q-86 -4 -117 27.5t-22.5 76zM72.5 1491q-9.5 -27 1.5 -51q59 -18 108 -8t66 14q43 10 78.5 27.5t48 39 t-8 44t-87.5 40.5l-80 -2l-6 11q-20 -6 -46 -23.5t-45.5 -41t-29 -50.5z" />
<glyph unicode="&#xb1;" horiz-adv-x="679" d="M46 84q1 12 13 14q82 6 149.5 10.5t133.5 7.5t133.5 3t147.5 -4q16 -2 16 -16.5t-16 -14.5q-84 -6 -150.5 -11t-131.5 -8.5t-132.5 -2t-149.5 5.5q-14 4 -13 16zM65 476q3 11 15 13h8l12 -6q10 -4 17.5 -4t15.5 -2q72 2 125 12q0 72 3 144t7 137q0 16 13.5 18.5 t17.5 -14.5l23 -270q51 12 107 22.5t142 10.5q16 -2 16.5 -16.5t-16.5 -14.5q-29 -4 -97 -26.5t-148 -37.5q0 -6 1 -10t1 -10q0 -49 -6.5 -97.5t-4.5 -129.5q4 -14 -8 -18.5t-20 5.5q-12 53 -18.5 114.5t-10.5 135.5q-53 -6 -102 -1t-84 28q-12 6 -9 17z" />
<glyph unicode="&#xb4;" horiz-adv-x="393" d="M18 1456q25 35 63 64.5t79 57.5t83 55.5t74 58.5q12 10 20.5 2.5t4.5 -23.5q-8 -23 -47 -56.5t-86 -67.5t-94 -63.5t-70 -43.5q-14 -10 -25.5 -3t-1.5 19z" />
<glyph unicode="&#xb8;" horiz-adv-x="202" d="M14.5 -211q-2.5 10 8.5 21q14 8 27 13t28 11q18 10 32.5 17.5t18.5 27.5q2 4 -1 -1t-3 -3q-4 16 -17.5 20.5t-29 6.5t-29.5 5t-22 19q-10 18 -2 50t14 57h33v-39t2 -39q20 -2 40.5 -3t37.5 -11q18 -10 26 -27.5t6 -38t-13 -38t-28 -27.5q-25 -14 -54.5 -17.5t-57.5 -13.5 q-14 0 -16.5 10z" />
<glyph unicode="&#xbf;" horiz-adv-x="587" d="M25 84q2 2 2 8q4 10 14 12q29 2 86 -1t119.5 -3t122 6.5t90.5 28.5q-4 29 -22.5 51.5t-41.5 42.5t-65.5 53t-88.5 72t-87 84t-59.5 88t-6.5 84t74 74q14 8 24.5 -3t-4.5 -22q-43 -27 -53 -52t-1 -52t33.5 -53.5t55.5 -52.5q41 -37 90 -71t94 -71t78 -81t39 -103 q0 -10 -3 -14.5t-9 -10.5q-41 -29 -100.5 -38t-122 -8t-124 8.5t-106.5 13.5q-8 -10 -18 -7t-10 17zM133 948q-14 29 21 43q27 8 55.5 -9t26.5 -44q4 -16 -10.5 -20.5t-20.5 12.5q-4 6 -17 6v-4v-4v-6q-6 -12 -17 -12.5t-15 14.5q-6 12 -8.5 15t-3.5 3h-3t-8 6z" />
<glyph unicode="&#xc0;" horiz-adv-x="1460" d="M-567 985q-2 10 8 21q35 10 66.5 21t66.5 11q84 0 192.5 -27.5t228.5 -73.5t245 -104.5t241 -117.5l226 469q53 109 104 219t123 209q16 23 39 10q31 -14 53.5 -43t38.5 -62.5t28.5 -69.5t22.5 -67q78 -219 121 -447t72 -458l45 -366q20 -41 42.5 -116t40 -157t28 -157.5 t8.5 -116.5q-14 -25 -39 -17q-12 6 -27.5 45t-31 94.5t-31 120t-26.5 125t-19.5 107.5t-10.5 69q-35 59 -84 106.5t-105.5 87.5t-117.5 75t-119 69q-72 41 -165 95.5t-199 113.5l-131 -252q-6 -14 -36 -63t-73 -115.5t-94 -139.5t-101.5 -132.5t-95 -96t-73.5 -30.5 q-16 4 -13.5 19.5t19.5 11.5q20 -2 59 34.5t85 95t94 128t90 133t71 110.5t35 60q33 63 63.5 126.5t63.5 129.5q-115 61 -237 120.5t-238.5 105.5t-223 76t-190.5 32q-31 2 -61.5 -10.5t-61.5 -20.5q-14 0 -16 10zM518 694q115 -59 212 -113.5t167 -95.5 q102 -59 202.5 -121.5t178.5 -148.5q-35 289 -81 570.5t-130 560.5q-4 8 -15.5 41.5t-25.5 71.5t-30.5 70t-28.5 36q-66 -88 -117 -195.5t-98 -206.5zM881 1950q-10 14 1 22t23 -2q33 -31 59.5 -51.5t49 -42t46 -52t50.5 -79.5q6 -14 -5 -21.5t-22 5.5q-12 14 -37.5 37.5 t-54 52t-58 62.5t-52.5 69zM1063 1360q2 -2 2 -6q0 4 -2 6z" />
<glyph unicode="&#xc1;" horiz-adv-x="1460" d="M-567 985.5q2 -10.5 16 -10.5q31 8 61.5 20.5t61.5 10.5q84 -2 190.5 -32t223 -76t238.5 -105.5t237 -120.5q-33 -66 -63.5 -129.5t-63.5 -126.5q-6 -12 -35 -59.5t-71 -111t-90 -133t-94 -128t-85 -95t-59 -34.5q-16 4 -19 -11.5t13 -19.5q29 -6 73.5 30.5t95 96 t101.5 132.5t94 139.5t72.5 115.5t36.5 63l131 252q106 -59 199.5 -113.5t164.5 -95.5q57 -35 118.5 -69.5t118 -74.5t105.5 -87t84 -107q2 -23 10.5 -69.5t19.5 -107t26.5 -125t31 -120t30.5 -94.5t28 -45q25 -8 39 17q2 41 -8.5 116.5t-28 157.5t-40 157t-42.5 116 l-45 366q-29 229 -72 457.5t-121 447.5q-10 31 -22.5 67t-28.5 69.5t-38.5 62.5t-53.5 43q-23 12 -39 -10q-72 -98 -123 -209t-104 -219l-226 -469q-117 59 -241.5 117.5t-244.5 104.5t-228.5 73.5t-192.5 27.5q-35 0 -66.5 -11t-66.5 -21q-10 -10 -8 -20.5zM518 694 l234 469q47 98 98 206t117 196q12 -4 28.5 -36t30.5 -70t25.5 -71.5t15.5 -41.5q84 -279 130 -560.5t81 -570.5q-78 86 -178.5 148.5t-202.5 121.5q-70 41 -167 95.5t-212 113.5zM801 1722q25 35 62.5 65t78.5 57.5t83 55t75 58.5q12 10 20 2.5t4 -23.5q-8 -23 -47 -56.5 t-86 -67t-94 -63.5t-70 -44q-14 -10 -25 -3t-1 19zM1063 1360q2 -2 2 -6q0 4 -2 6z" />
<glyph unicode="&#xc2;" horiz-adv-x="1460" d="M-567 985q-2 10 8 21q35 10 66.5 21t66.5 11q84 0 192.5 -27.5t228.5 -73.5t245 -104.5t241 -117.5l226 469q53 109 104 219t123 209q16 23 39 10q31 -14 53.5 -43t38.5 -62.5t28.5 -69.5t22.5 -67q78 -219 121 -447t72 -458l45 -366q20 -41 42.5 -116t40 -157t28 -157.5 t8.5 -116.5q-14 -25 -39 -17q-12 6 -27.5 45t-31 94.5t-31 120t-26.5 125t-19.5 107.5t-10.5 69q-35 59 -84 106.5t-105.5 87.5t-117.5 75t-119 69q-72 41 -165 95.5t-199 113.5l-131 -252q-6 -14 -36 -63t-73 -115.5t-94 -139.5t-101.5 -132.5t-95 -96t-73.5 -30.5 q-16 4 -13.5 19.5t19.5 11.5q20 -2 59 34.5t85 95t94 128t90 133t71 110.5t35 60q33 63 63.5 126.5t63.5 129.5q-115 61 -237 120.5t-238.5 105.5t-223 76t-190.5 32q-31 2 -61.5 -10.5t-61.5 -20.5q-14 0 -16 10zM518 694q115 -59 212 -113.5t167 -95.5 q102 -59 202.5 -121.5t178.5 -148.5q-35 289 -81 570.5t-130 560.5q-4 8 -15.5 41.5t-25.5 71.5t-30.5 70t-28.5 36q-66 -88 -117 -195.5t-98 -206.5zM772 1723.5q-14 17.5 2 37.5l64 56q33 35 66.5 77.5t94.5 85.5q18 12 41 -12t42.5 -61t32.5 -76t15 -53q4 -16 -11 -19.5 t-19 10.5q-8 45 -36 78t-50 70q-27 -23 -50.5 -49.5t-48 -54t-50 -53t-56.5 -44.5q-23 -10 -37 7.5zM1063 1360q2 -2 2 -6q0 4 -2 6z" />
<glyph unicode="&#xc3;" horiz-adv-x="1460" d="M-567 985q-2 10 8 21q35 10 66.5 21t66.5 11q84 0 192.5 -27.5t228.5 -73.5t245 -104.5t241 -117.5l226 469q53 109 104 219t123 209q16 23 39 10q31 -14 53.5 -43t38.5 -62.5t28.5 -69.5t22.5 -67q78 -219 121 -447t72 -458l45 -366q20 -41 42.5 -116t40 -157t28 -157.5 t8.5 -116.5q-14 -25 -39 -17q-12 6 -27.5 45t-31 94.5t-31 120t-26.5 125t-19.5 107.5t-10.5 69q-35 59 -84 106.5t-105.5 87.5t-117.5 75t-119 69q-72 41 -165 95.5t-199 113.5l-131 -252q-6 -14 -36 -63t-73 -115.5t-94 -139.5t-101.5 -132.5t-95 -96t-73.5 -30.5 q-16 4 -13.5 19.5t19.5 11.5q20 -2 59 34.5t85 95t94 128t90 133t71 110.5t35 60q33 63 63.5 126.5t63.5 129.5q-115 61 -237 120.5t-238.5 105.5t-223 76t-190.5 32q-31 2 -61.5 -10.5t-61.5 -20.5q-14 0 -16 10zM518 694q115 -59 212 -113.5t167 -95.5 q102 -59 202.5 -121.5t178.5 -148.5q-35 289 -81 570.5t-130 560.5q-4 8 -15.5 41.5t-25.5 71.5t-30.5 70t-28.5 36q-66 -88 -117 -195.5t-98 -206.5zM755 1793q-7 9 3 19q23 23 43 44.5t43 41.5q43 43 73.5 33t55 -39.5t45 -64.5t45.5 -41q20 -6 40.5 0t40 17.5t39 24.5 t38.5 21q14 4 19 -7t-5 -21q-25 -14 -58.5 -38t-68.5 -37t-67.5 -10t-57.5 42q-16 25 -29.5 50t-38.5 42q-39 -10 -72.5 -33.5t-66.5 -48.5q-14 -4 -21 5zM1063 1360q2 -2 2 -6q0 4 -2 6z" />
<glyph unicode="&#xc4;" horiz-adv-x="1460" d="M-567 985q-2 10 8 21q35 10 66.5 21t66.5 11q84 0 192.5 -27.5t228.5 -73.5t245 -104.5t241 -117.5l226 469q53 109 104 219t123 209q16 23 39 10q31 -14 53.5 -43t38.5 -62.5t28.5 -69.5t22.5 -67q78 -219 121 -447t72 -458l45 -366q20 -41 42.5 -116t40 -157t28 -157.5 t8.5 -116.5q-14 -25 -39 -17q-12 6 -27.5 45t-31 94.5t-31 120t-26.5 125t-19.5 107.5t-10.5 69q-35 59 -84 106.5t-105.5 87.5t-117.5 75t-119 69q-72 41 -165 95.5t-199 113.5l-131 -252q-6 -14 -36 -63t-73 -115.5t-94 -139.5t-101.5 -132.5t-95 -96t-73.5 -30.5 q-16 4 -13.5 19.5t19.5 11.5q20 -2 59 34.5t85 95t94 128t90 133t71 110.5t35 60q33 63 63.5 126.5t63.5 129.5q-115 61 -237 120.5t-238.5 105.5t-223 76t-190.5 32q-31 2 -61.5 -10.5t-61.5 -20.5q-14 0 -16 10zM518 694q115 -59 212 -113.5t167 -95.5 q102 -59 202.5 -121.5t178.5 -148.5q-35 289 -81 570.5t-130 560.5q-4 8 -15.5 41.5t-25.5 71.5t-30.5 70t-28.5 36q-66 -88 -117 -195.5t-98 -206.5zM825 1748q0 15 13.5 25.5t44.5 0.5h2q10 0 14 -15v-4v-2q4 -12 0 -24.5t-20 -16.5q-27 -6 -40.5 7.5t-13.5 28.5z M856 1729q8 4 12 4l2 4q-4 -2 -7 -3t-7 -5zM858 1747q4 0 8 8q-4 -4 -8 -6t0 -2zM1018 1748q0 15 13 25.5t44 0.5h2q10 0 15 -15v-4v-2q4 -12 -0.5 -24.5t-20.5 -16.5q-27 -6 -40 7.5t-13 28.5zM1049 1729q8 4 12 4l2 4q-4 -2 -7 -3t-7 -5zM1051 1747q4 0 8 8q-4 -4 -8 -6 t0 -2zM1063 1360q2 -2 2 -6q0 4 -2 6z" />
<glyph unicode="&#xc5;" horiz-adv-x="1460" d="M-567 985q-2 10 8 21q35 10 66.5 21t66.5 11q84 0 192.5 -27.5t228.5 -73.5t245 -104.5t241 -117.5l226 469q53 109 104 219t123 209q16 23 39 10q31 -14 53.5 -43t38.5 -62.5t28.5 -69.5t22.5 -67q78 -219 121 -447t72 -458l45 -366q20 -41 42.5 -116t40 -157t28 -157.5 t8.5 -116.5q-14 -25 -39 -17q-12 6 -27.5 45t-31 94.5t-31 120t-26.5 125t-19.5 107.5t-10.5 69q-35 59 -84 106.5t-105.5 87.5t-117.5 75t-119 69q-72 41 -165 95.5t-199 113.5l-131 -252q-6 -14 -36 -63t-73 -115.5t-94 -139.5t-101.5 -132.5t-95 -96t-73.5 -30.5 q-16 4 -13.5 19.5t19.5 11.5q20 -2 59 34.5t85 95t94 128t90 133t71 110.5t35 60q33 63 63.5 126.5t63.5 129.5q-115 61 -237 120.5t-238.5 105.5t-223 76t-190.5 32q-31 2 -61.5 -10.5t-61.5 -20.5q-14 0 -16 10zM518 694q115 -59 212 -113.5t167 -95.5 q102 -59 202.5 -121.5t178.5 -148.5q-35 289 -81 570.5t-130 560.5q-4 8 -15.5 41.5t-25.5 71.5t-30.5 70t-28.5 36q-66 -88 -117 -195.5t-98 -206.5zM802 1758q7 36 39.5 73t76.5 55q-4 14 12 19q27 0 52.5 -2t49.5 -9q33 -6 68 -21t53 -38t14 -50.5t-49 -55.5 q-41 -27 -94 -39.5t-102 -16.5q-74 -4 -100.5 22.5t-19.5 62.5zM849 1774.5q-9 -21.5 1 -41.5q25 -8 49.5 -8.5t44 2t34.5 6.5t23 4q37 8 69 23.5t42 32.5t-7.5 35.5t-76.5 35.5l-70 -2l-4 8q-18 -4 -40.5 -18.5t-39 -35t-25.5 -42zM1063 1360q2 -2 2 -6q0 4 -2 6z" />
<glyph unicode="&#xc6;" horiz-adv-x="1951" d="M-368.5 950.5q-2.5 10.5 8.5 20.5q35 10 66.5 21.5t66.5 11.5q84 0 192.5 -28t228 -74t244.5 -104.5t242 -117.5l225 469q53 109 104.5 219.5t123.5 208.5q16 23 38 10q8 -4 10.5 -19.5t0.5 -29.5t-7.5 -19.5t-9.5 11.5q-66 -88 -117 -195.5t-98 -206.5l-233 -469 q115 -59 212 -113t167 -95q74 -55 111.5 -86t47 -43.5t-5 -9.5t-43 17.5t-67.5 36t-78 44.5q-72 41 -165 95t-200 113l-131 -251q-6 -14 -24.5 -49t-45 -79t-59.5 -91.5t-66.5 -84t-67.5 -59t-62 -16.5q-16 4 -13.5 19.5t19.5 10.5q20 -2 48 20.5t57.5 58.5t59 80t54 85 t43 74t24.5 45q33 63 64 126.5t63 129.5q-115 61 -236.5 120.5t-238 105.5t-223 76t-190.5 32q-31 2 -62 -10.5t-61 -20.5q-14 0 -16.5 10.5zM1154 1567.5q1 9.5 13 13.5q4 10 14.5 10t16.5 -10v-8q39 -4 79 4t81 10q133 6 262 5t260 -11q16 -2 16 -16.5t-16 -14.5 q-49 -2 -139 -7t-191.5 -10t-195.5 -5t-150 10q14 -94 24.5 -173t17.5 -155.5t12.5 -155.5t7.5 -173q111 10 216 17t218 -1h2q2 -2 6 -2l2 -2q2 0 2 -2q10 -10 0 -21q-4 -6 -12 -6q-111 -10 -217.5 -19t-216.5 -3q2 -111 1 -210.5t-3 -195.5t-6.5 -194.5t-8.5 -210.5 q78 8 153 16t152 10q66 2 139.5 -10t139.5 -2q4 10 14.5 11t16.5 -11q0 -2 1 -3t1 -5q2 -12 -13 -21q-43 -18 -96 -16t-100 0q-104 -2 -209 -4t-229 -6q0 16 -1 19l-1 3v2v19l-35 1489q0 12 -2 13t-3 -1t-3.5 -1t-4.5 13l-6 4q-10 8 -9 17.5z" />
<glyph unicode="&#xc7;" horiz-adv-x="1316" d="M7 770q-1 100 21.5 190.5t75.5 157.5q39 49 68 87t59.5 69t68.5 58.5t93 60.5q96 55 206 89t225.5 49t230 14t223.5 -15q18 -2 69.5 -10.5t105.5 -24.5t95 -44t35 -67l-12 -73q-4 -16 -17.5 -15.5t-13.5 17.5q4 16 8 34.5t0 34.5q-6 37 -40.5 57.5t-79 31t-89.5 13.5 t-69 5q-104 8 -215 7t-219.5 -15.5t-212 -46t-197.5 -86.5q-80 -47 -150.5 -110.5t-117.5 -147.5q-43 -76 -63.5 -168.5t-19.5 -190.5t24.5 -196.5t66.5 -187.5t105.5 -160.5t144.5 -116.5q100 -55 205.5 -75t213 -16.5t216 24t213.5 46.5q16 4 20 -10t-12 -21 q-111 -29 -225.5 -53t-231.5 -28v-3q-4 -8 -5 -26.5t-1 -38t1 -35.5t3 -20q16 -4 36.5 -1l41 6t40 2t36.5 -14q68 -49 58.5 -102t-56.5 -100t-109.5 -84t-99.5 -53q-16 -6 -21.5 6t6.5 22q27 16 69 43t78 58.5t55.5 68.5t2.5 74q-8 20 -27.5 22t-42 0t-46 -5t-41 7.5 t-23.5 38t4 84.5q2 12 3 24.5t5 25.5q-123 -2 -237.5 26.5t-218.5 102.5q-68 51 -126.5 129.5t-100.5 173t-66.5 198t-25.5 203.5z" />
<glyph unicode="&#xc8;" horiz-adv-x="1216" d="M12.5 768q-10.5 74 5 152.5t48 149.5t69.5 106q125 115 264.5 177t287 96t300 52.5t305.5 46.5q12 -6 11 -20q0 -4 -1.5 -6t-1.5 -6q-78 -14 -204.5 -34t-271 -51.5t-288 -81t-255 -124t-174 -180t-44.5 -248.5q10 -72 53.5 -107t108.5 -55q84 -25 174 -29t181.5 3 t181.5 19.5t174 16.5q12 0 47 3t73 1t70.5 -12t42.5 -35q-88 -100 -189 -188t-189.5 -171t-152 -164t-73.5 -169q-6 -55 36 -86t110.5 -44t151.5 -11t158 14t130 30.5t68 39.5q8 2 9 -6.5t-1 -19.5t-8.5 -22.5t-14.5 -13.5q-29 -18 -93 -36.5t-144 -30t-164 -10.5 t-150.5 21.5t-105.5 63.5t-27 119q12 82 75.5 166t147.5 167t177.5 164t166.5 158q-74 20 -158.5 18.5t-175.5 -12t-184.5 -21.5t-181.5 -9t-169 24.5t-148 79.5q-47 41 -57.5 115zM635 1837q-10 14 1 22.5t23 -1.5q33 -31 59.5 -51.5t49.5 -42t46.5 -52.5t49.5 -80 q6 -14 -5 -21t-21 5q-12 14 -38 37.5t-54.5 52.5t-58 62.5t-52.5 68.5z" />
<glyph unicode="&#xc9;" horiz-adv-x="1216" d="M12.5 768q10.5 -74 57.5 -115q68 -57 148.5 -79.5t168.5 -24.5t181.5 9t184.5 21.5t176 12.5t158 -19q-74 -78 -167 -158.5t-177 -163.5t-147.5 -167t-75.5 -166q-12 -76 27 -119t105.5 -63.5t150.5 -21.5t164 10.5t144.5 30t92.5 36.5q8 2 14.5 13.5t8.5 22.5t1 19.5 t-9 6.5q-12 -20 -67.5 -39t-130.5 -31t-158 -14t-151.5 11t-110.5 44t-36 86q10 88 73.5 169t152 164t189.5 171t189 188q-10 25 -42.5 35t-70.5 12t-73 -1t-47 -3q-84 -4 -174 -16.5t-181.5 -19.5t-181.5 -3t-174 29q-66 20 -108.5 55t-53.5 107q-18 143 44.5 248.5 t174 180t255 124t288 81t271 51.5t204.5 34q0 4 1.5 6t1.5 6q2 14 -11 20q-154 -29 -306 -47t-299.5 -52t-287 -96.5t-264.5 -176.5q-37 -35 -69.5 -106t-48 -149.5t-5 -152.5zM551 1659q25 35 62.5 64.5t78.5 57t83 55.5t75 58q12 10 20 3t4 -23q-8 -23 -47 -56.5 t-86 -67.5t-94 -63.5t-69 -44.5q-14 -10 -25.5 -2.5t-1.5 19.5z" />
<glyph unicode="&#xca;" horiz-adv-x="1216" d="M12.5 768q-10.5 74 5 152.5t48 149.5t69.5 106q125 115 264.5 177t287 96t300 52.5t305.5 46.5q12 -6 11 -20q0 -4 -1.5 -6t-1.5 -6q-78 -14 -204.5 -34t-271 -51.5t-288 -81t-255 -124t-174 -180t-44.5 -248.5q10 -72 53.5 -107t108.5 -55q84 -25 174 -29t181.5 3 t181.5 19.5t174 16.5q12 0 47 3t73 1t70.5 -12t42.5 -35q-88 -100 -189 -188t-189.5 -171t-152 -164t-73.5 -169q-6 -55 36 -86t110.5 -44t151.5 -11t158 14t130 30.5t68 39.5q8 2 9 -6.5t-1 -19.5t-8.5 -22.5t-14.5 -13.5q-29 -18 -93 -36.5t-144 -30t-164 -10.5 t-150.5 21.5t-105.5 63.5t-27 119q12 82 75.5 166t147.5 167t177.5 164t166.5 158q-74 20 -158.5 18.5t-175.5 -12t-184.5 -21.5t-181.5 -9t-169 24.5t-148 79.5q-47 41 -57.5 115zM538 1594.5q-14 17.5 3 37.5l63 56q33 35 67 77.5t95 85.5q18 12 40.5 -12t42 -61t33 -76 t15.5 -53q4 -16 -11.5 -19.5t-19.5 10.5q-8 45 -35.5 78t-50.5 70q-27 -23 -50 -49.5t-48 -54t-50.5 -53t-56.5 -44.5q-23 -10 -37 7.5z" />
<glyph unicode="&#xcb;" horiz-adv-x="1216" d="M12.5 768q-10.5 74 5 152.5t48 149.5t69.5 106q125 115 264.5 177t287 96t300 52.5t305.5 46.5q12 -6 11 -20q0 -4 -1.5 -6t-1.5 -6q-78 -14 -204.5 -34t-271 -51.5t-288 -81t-255 -124t-174 -180t-44.5 -248.5q10 -72 53.5 -107t108.5 -55q84 -25 174 -29t181.5 3 t181.5 19.5t174 16.5q12 0 47 3t73 1t70.5 -12t42.5 -35q-88 -100 -189 -188t-189.5 -171t-152 -164t-73.5 -169q-6 -55 36 -86t110.5 -44t151.5 -11t158 14t130 30.5t68 39.5q8 2 9 -6.5t-1 -19.5t-8.5 -22.5t-14.5 -13.5q-29 -18 -93 -36.5t-144 -30t-164 -10.5 t-150.5 21.5t-105.5 63.5t-27 119q12 82 75.5 166t147.5 167t177.5 164t166.5 158q-74 20 -158.5 18.5t-175.5 -12t-184.5 -21.5t-181.5 -9t-169 24.5t-148 79.5q-47 41 -57.5 115zM684 1682.5q0 15.5 13.5 25.5t43.5 0h2q10 0 15 -14v-4v-2q4 -12 0 -24.5t-21 -16.5 q-27 -6 -40 7t-13 28.5zM715 1663q8 4 12 4l2 4q-4 -2 -7 -3t-7 -5zM717 1681q4 0 8 9q-4 -4 -8 -6.5t0 -2.5zM877 1682.5q0 15.5 13 25.5t44 0h2q10 0 14 -14v-4v-2q4 -12 0 -24.5t-20 -16.5q-27 -6 -40 7t-13 28.5zM907 1663q8 4 13 4l2 4q-4 -2 -7.5 -3t-7.5 -5z M909 1681q4 0 9 9q-4 -4 -8.5 -6.5t-0.5 -2.5z" />
<glyph unicode="&#xcc;" horiz-adv-x="337" d="M-162 1479q-8 12 0 21t21 3q33 -18 74.5 -15t88 20.5t91.5 44t85 57t71.5 61.5t47.5 53q16 20 34 7t5 -35q-16 -29 -29.5 -95.5t-22.5 -143.5t-16 -150.5t-14 -114.5q-41 -268 -88 -535.5t-63 -541.5q-2 -27 0 -81t9 -116.5t21.5 -123t36.5 -99.5q-8 25 -14 50.5t2 55.5 q6 16 20.5 12.5t10.5 -20.5q-10 -41 8.5 -76.5t20.5 -78.5q-4 -27 -31 -13q-23 14 -40 45t-28 54q-43 82 -58 177t-13 192t13 193.5t21 184.5q10 72 19.5 145.5t21.5 145.5q6 39 15.5 94t19.5 115.5t20.5 120t18.5 106.5q6 31 11 82t12.5 109.5t16.5 120t22 112.5 q-47 -37 -107.5 -76t-122 -64.5t-118 -29.5t-93.5 27zM164 2034q-10 14 1 22t23 -2q33 -31 59.5 -51.5t49 -42t46.5 -52t50 -79.5q6 -14 -5 -21.5t-21 4.5q-12 14 -38 38t-54.5 52.5t-58 62.5t-52.5 69z" />
<glyph unicode="&#xcd;" horiz-adv-x="337" d="M-162 1479q37 -31 93.5 -27t118 29.5t121.5 64.5t108 76q-12 -51 -21.5 -112.5t-17 -120t-12.5 -109.5t-11 -82q-8 -47 -18.5 -106.5t-20.5 -120t-19 -115.5t-16 -94q-12 -72 -21 -145.5t-20 -145.5q-10 -88 -21 -184.5t-13 -193.5t13 -192.5t58 -176.5 q10 -23 27.5 -53.5t40.5 -45.5q27 -14 31 13q-2 43 -20.5 78.5t-8.5 76.5q4 16 -10.5 20.5t-20.5 -12.5q-8 -31 -2 -56.5t14 -49.5q-23 39 -37 99.5t-21 123t-9 116.5t0 81q16 274 63 541.5t88 535.5q6 41 13.5 114.5t16.5 150.5t22.5 143.5t29.5 95.5q12 23 -5 36t-34 -8 q-16 -23 -47.5 -53.5t-71.5 -61t-85 -57t-91.5 -44t-88.5 -20.5t-74 15q-12 6 -20.5 -3t-0.5 -21zM96 1761q25 35 63 64.5t79 57.5t82.5 55.5t74.5 58.5q12 10 20.5 2.5t4.5 -23.5q-8 -23 -47 -56.5t-86 -67t-94.5 -63.5t-69.5 -44q-14 -10 -25.5 -3t-1.5 19z" />
<glyph unicode="&#xce;" horiz-adv-x="337" d="M-162 1479q-8 12 0 21t21 3q33 -18 74.5 -15t88 20.5t91.5 44t85 57t71.5 61.5t47.5 53q16 20 34 7t5 -35q-16 -29 -29.5 -95.5t-22.5 -143.5t-16 -150.5t-14 -114.5q-41 -268 -88 -535.5t-63 -541.5q-2 -27 0 -81t9 -116.5t21.5 -123t36.5 -99.5q-8 25 -14 50.5t2 55.5 q6 16 20.5 12.5t10.5 -20.5q-10 -41 8.5 -76.5t20.5 -78.5q-4 -27 -31 -13q-23 14 -40 45t-28 54q-43 82 -58 177t-13 192t13 193.5t21 184.5q10 72 19.5 145.5t21.5 145.5q6 39 15.5 94t19.5 115.5t20.5 120t18.5 106.5q6 31 11 82t12.5 109.5t16.5 120t22 112.5 q-47 -37 -107.5 -76t-122 -64.5t-118 -29.5t-93.5 27zM106 1766.5q-14 17.5 3 37.5l63 56q33 35 67 77.5t95 85.5q18 12 40.5 -12t42 -61t33 -76t15.5 -53q4 -16 -11.5 -19.5t-19.5 10.5q-8 45 -35.5 78t-50.5 70q-27 -23 -50.5 -49.5t-48 -54t-50 -53t-56.5 -44.5 q-23 -10 -37 7.5z" />
<glyph unicode="&#xcf;" horiz-adv-x="337" d="M-162 1479q-8 12 0 21t21 3q33 -18 74.5 -15t88 20.5t91.5 44t85 57t71.5 61.5t47.5 53q16 20 34 7t5 -35q-16 -29 -29.5 -95.5t-22.5 -143.5t-16 -150.5t-14 -114.5q-41 -268 -88 -535.5t-63 -541.5q-2 -27 0 -81t9 -116.5t21.5 -123t36.5 -99.5q-8 25 -14 50.5t2 55.5 q6 16 20.5 12.5t10.5 -20.5q-10 -41 8.5 -76.5t20.5 -78.5q-4 -27 -31 -13q-23 14 -40 45t-28 54q-43 82 -58 177t-13 192t13 193.5t21 184.5q10 72 19.5 145.5t21.5 145.5q6 39 15.5 94t19.5 115.5t20.5 120t18.5 106.5q6 31 11 82t12.5 109.5t16.5 120t22 112.5 q-47 -37 -107.5 -76t-122 -64.5t-118 -29.5t-93.5 27zM211 1834q0 15 13.5 25.5t43.5 0.5h2q10 0 15 -15v-4v-2q4 -12 0 -24.5t-21 -16.5q-27 -6 -40 7.5t-13 28.5zM242 1815q8 4 12 4l2 4q-4 -2 -7 -3t-7 -5zM244 1833q4 0 8 8q-4 -4 -8 -6t0 -2zM403 1834q0 15 13.5 25.5 t44.5 0.5h2q10 0 14 -15v-4v-2q4 -12 0 -24.5t-20 -16.5q-27 -6 -40.5 7.5t-13.5 28.5zM434 1815q8 4 12 4l3 4q-4 -2 -7.5 -3t-7.5 -5zM436 1833q4 0 8 8q-4 -4 -8 -6t0 -2z" />
<glyph unicode="&#xd0;" horiz-adv-x="1507" d="M-3 663.5q1 12.5 13 14.5q47 4 92 9t91 11q-4 190 19.5 366.5t104.5 309.5q23 37 43.5 76t51.5 70q49 49 107.5 80.5t120.5 44t125.5 2t125.5 -44.5q127 -72 240.5 -192t195.5 -264.5t122 -302t19 -304.5q-20 -143 -99 -265t-192.5 -220.5t-247.5 -169t-263 -109.5 q-47 -14 -96.5 -27.5t-100.5 -11.5q-86 2 -122 3t-58.5 5t-53 18.5t-108.5 44.5q-12 8 -8 20.5t18 8.5q41 -16 80 -33.5t80 -27.5q96 -18 207.5 0t225.5 63t223.5 113.5t199.5 150.5t154.5 175.5t89.5 187.5t17.5 199.5t-39.5 212t-85 210t-120.5 192.5t-147.5 159.5 t-164 113.5q-74 39 -147.5 40t-139 -28.5t-119 -85t-85.5 -128.5q-66 -145 -92.5 -309t-30.5 -336q76 10 130 19t103 16.5t103.5 9.5t130.5 -2q25 -4 18 -25q-78 -16 -138.5 -25.5t-114.5 -17.5t-109.5 -14.5t-122.5 -12.5q-2 -180 12 -354t29 -328q14 -10 -0.5 -14t-28.5 4 q-8 131 -29.5 312.5t-29.5 377.5q-47 -4 -93.5 -4h-93.5q-14 4 -13 16.5z" />
<glyph unicode="&#xd1;" horiz-adv-x="1468" d="M-298 -266.5q1 12.5 13 14.5q23 2 44.5 0t39.5 6q27 12 56.5 38t57.5 55.5t50.5 59.5t36.5 50q39 53 86 143t97 200t99.5 228.5t93.5 231t80 208t58 158.5q18 51 31 109q-2 82 -1 162t5 143q2 14 3 33.5t5 38t12.5 35t24.5 24.5q18 6 33 -8q6 -10 6 -52t-3 -90t-7.5 -90 t-6.5 -55q-4 -31 -9 -61.5t-11 -61.5q2 -152 16.5 -301t36.5 -295q8 -59 21.5 -133.5t32 -151.5t43 -149.5t55.5 -130.5q20 -35 52 -61.5t60 -55.5q37 8 75 10.5t71 20.5t67.5 50t65.5 70t56.5 78t41.5 72q74 145 82 302t-25.5 313t-99 305.5t-139.5 278.5q-4 8 -26.5 51 t-49 93t-52.5 93t-34 51q-10 14 1 22.5t24 -1.5q16 -16 26.5 -41t20.5 -47q82 -141 164 -278.5t139 -291.5q35 -92 62.5 -207.5t34.5 -235.5t-11 -234.5t-76 -204.5q-27 -41 -51.5 -81t-52 -77t-61 -69.5t-79.5 -59.5q-49 -29 -99 -38t-95 3t-83 47t-60 94 q-25 66 -53.5 129.5t-43.5 131.5q-16 80 -27.5 137t-20.5 103t-16 87t-12.5 88t-10.5 105.5t-11 140.5l-6 107q-23 -63 -59.5 -160.5t-83 -210.5t-97.5 -231.5t-101 -225t-96 -193.5t-81 -134q-12 -18 -39 -50t-58.5 -66t-65.5 -61.5t-61 -35.5q-23 -6 -46 -5.5t-46 -1.5 q-14 4 -13 16.5zM503 1873q-7 9 3 19q23 23 43 44.5t43 41.5q43 43 73.5 33t55 -39.5t45 -64.5t45.5 -41q20 -6 40.5 0t40 17t39 24.5t38.5 21.5q14 4 19 -7t-5 -21q-25 -14 -58.5 -38t-68.5 -37.5t-67.5 -10t-57.5 42.5q-16 25 -29.5 50t-37.5 42q-39 -10 -73 -33.5 t-67 -48.5q-14 -4 -21 5z" />
<glyph unicode="&#xd2;" horiz-adv-x="2340" d="M57 446.5q-47 159.5 0 374.5q16 76 80 155t147 149.5t170 127t148 90.5q113 61 234 105q119 45 231 65q66 12 164 33t196 29q-31 10 -45 25.5t-9 21.5t33 -1t81 -42q57 0 107.5 -9t84.5 -32q8 -8 7 -18l-25 -50l-6 -6q70 -47 141.5 -96t138 -103.5t126 -114.5t108.5 -130 q55 -80 98 -168t56.5 -179t-8 -182.5t-95.5 -177.5q-70 -82 -151.5 -143t-172 -106.5t-188.5 -78t-199 -55.5q-152 -35 -332 -41t-357 21t-335.5 92.5t-269.5 175t-158 269zM75 568.5q7 -107.5 63.5 -208t164.5 -184.5q158 -123 363.5 -180t422 -57t427 50t380.5 140 q68 35 137.5 85t125 113.5t88 140.5t26.5 167q-6 96 -45 188t-98 166q-45 55 -114.5 126t-155.5 144.5t-183.5 147.5t-197.5 137q-78 -6 -154 -21.5t-123 -23.5q-135 -23 -270 -64.5t-261 -104t-240 -146.5t-204 -191q-84 -98 -121.5 -207.5t-30.5 -217zM1192 1929 q-10 14 1 22.5t24 -1.5q33 -31 65.5 -56.5t66 -51t67.5 -54.5t69 -68q10 -10 -3.5 -19t-23.5 3q-12 14 -47 38.5t-77 54.5t-80.5 63.5t-61.5 68.5zM1536 1546l94 -65l2 2l19 37q-23 12 -51.5 18t-63.5 8z" />
<glyph unicode="&#xd3;" horiz-adv-x="2340" d="M57 446.5q47 -159.5 158 -269t269.5 -175t335.5 -92.5t357.5 -20.5t331.5 40.5q100 23 198.5 55.5t189 78t172 106.5t151.5 143q74 86 95.5 177.5t8 182.5t-56.5 179t-98 168q-49 70 -108.5 130t-126 114.5t-138.5 103.5t-141 96l6 6l25 50q2 10 -7 18q-35 23 -85 32 t-107 9q-53 35 -81 42t-33 1t9.5 -21.5t44.5 -25.5q-98 -8 -196 -28.5t-164 -33.5q-113 -20 -231 -65q-121 -43 -234 -105q-61 -35 -148 -91t-170 -126.5t-146.5 -149.5t-80.5 -155q-47 -215 0 -374.5zM75 568.5q-7 107.5 30.5 217t121.5 207.5q90 106 204 190.5t240 147 t261 104.5t270 64q47 8 123 23.5t154 21.5q100 -63 197.5 -137t183.5 -147.5t155.5 -144.5t114.5 -126q59 -74 98 -166t45 -188q6 -90 -26.5 -167t-88 -140.5t-125 -113.5t-137.5 -85q-170 -90 -380.5 -140t-427 -50t-422 57t-363.5 180q-109 84 -165 184.5t-63 208z M1042 1722q25 35 63 65t79 57.5t83 55t74 58.5q12 10 20.5 2.5t4.5 -23.5q-8 -23 -47 -56.5t-86 -67t-94 -63.5t-70 -44q-14 -10 -25.5 -3t-1.5 19zM1536 1546q35 -2 63.5 -8t51.5 -18l-19 -37l-2 -2z" />
<glyph unicode="&#xd4;" horiz-adv-x="2340" d="M57 446.5q-47 159.5 0 374.5q16 76 80 155t147 149.5t170 127t148 90.5q113 61 234 105q119 45 231 65q66 12 164 33t196 29q-31 10 -45 25.5t-9 21.5t33 -1t81 -42q57 0 107.5 -9t84.5 -32q8 -8 7 -18l-25 -50l-6 -6q70 -47 141.5 -96t138 -103.5t126 -114.5t108.5 -130 q55 -80 98 -168t56.5 -179t-8 -182.5t-95.5 -177.5q-70 -82 -151.5 -143t-172 -106.5t-188.5 -78t-199 -55.5q-152 -35 -332 -41t-357 21t-335.5 92.5t-269.5 175t-158 269zM75 568.5q7 -107.5 63.5 -208t164.5 -184.5q158 -123 363.5 -180t422 -57t427 50t380.5 140 q68 35 137.5 85t125 113.5t88 140.5t26.5 167q-6 96 -45 188t-98 166q-45 55 -114.5 126t-155.5 144.5t-183.5 147.5t-197.5 137q-78 -6 -154 -21.5t-123 -23.5q-135 -23 -270 -64.5t-261 -104t-240 -146.5t-204 -191q-84 -98 -121.5 -207.5t-30.5 -217zM1089 1723.5 q-14 17.5 3 37.5l63 56q33 35 67 77.5t95 85.5q18 12 40.5 -12t42 -61t33 -76t15.5 -53q4 -16 -11.5 -19.5t-19.5 10.5q-8 45 -35.5 78t-50.5 70q-27 -23 -50.5 -49.5t-48 -54t-50 -53t-56.5 -44.5q-23 -10 -37 7.5zM1536 1546l94 -65l2 2l19 37q-23 12 -51.5 18t-63.5 8z " />
<glyph unicode="&#xd5;" horiz-adv-x="2340" d="M57 446.5q-47 159.5 0 374.5q16 76 80 155t147 149.5t170 127t148 90.5q113 61 234 105q119 45 231 65q66 12 164 33t196 29q-31 10 -45 25.5t-9 21.5t33 -1t81 -42q57 0 107.5 -9t84.5 -32q8 -8 7 -18l-25 -50l-6 -6q70 -47 141.5 -96t138 -103.5t126 -114.5t108.5 -130 q55 -80 98 -168t56.5 -179t-8 -182.5t-95.5 -177.5q-70 -82 -151.5 -143t-172 -106.5t-188.5 -78t-199 -55.5q-152 -35 -332 -41t-357 21t-335.5 92.5t-269.5 175t-158 269zM75 568.5q7 -107.5 63.5 -208t164.5 -184.5q158 -123 363.5 -180t422 -57t427 50t380.5 140 q68 35 137.5 85t125 113.5t88 140.5t26.5 167q-6 96 -45 188t-98 166q-45 55 -114.5 126t-155.5 144.5t-183.5 147.5t-197.5 137q-78 -6 -154 -21.5t-123 -23.5q-135 -23 -270 -64.5t-261 -104t-240 -146.5t-204 -191q-84 -98 -121.5 -207.5t-30.5 -217zM994.5 1762.5 q-7.5 9.5 2.5 19.5q23 23 43.5 44t42.5 42q43 43 74 32.5t55.5 -40t45 -64.5t45.5 -41q20 -6 40.5 0t40 17.5t39 24.5t37.5 22q14 4 19.5 -7.5t-4.5 -21.5q-25 -14 -59 -37.5t-68.5 -37t-67.5 -10.5t-57 42q-16 25 -29.5 50.5t-38.5 41.5q-39 -10 -72.5 -33.5t-66.5 -48.5 q-14 -4 -21.5 5.5zM1536 1546l94 -65l2 2l19 37q-23 12 -51.5 18t-63.5 8z" />
<glyph unicode="&#xd6;" horiz-adv-x="2340" d="M57 446.5q-47 159.5 0 374.5q16 76 80 155t147 149.5t170 127t148 90.5q113 61 234 105q119 45 231 65q66 12 164 33t196 29q-31 10 -45 25.5t-9 21.5t33 -1t81 -42q57 0 107.5 -9t84.5 -32q8 -8 7 -18l-25 -50l-6 -6q70 -47 141.5 -96t138 -103.5t126 -114.5t108.5 -130 q55 -80 98 -168t56.5 -179t-8 -182.5t-95.5 -177.5q-70 -82 -151.5 -143t-172 -106.5t-188.5 -78t-199 -55.5q-152 -35 -332 -41t-357 21t-335.5 92.5t-269.5 175t-158 269zM75 568.5q7 -107.5 63.5 -208t164.5 -184.5q158 -123 363.5 -180t422 -57t427 50t380.5 140 q68 35 137.5 85t125 113.5t88 140.5t26.5 167q-6 96 -45 188t-98 166q-45 55 -114.5 126t-155.5 144.5t-183.5 147.5t-197.5 137q-78 -6 -154 -21.5t-123 -23.5q-135 -23 -270 -64.5t-261 -104t-240 -146.5t-204 -191q-84 -98 -121.5 -207.5t-30.5 -217zM1196 1784.5 q0 15.5 13.5 26t43.5 -0.5h2q10 0 15 -14v-4v-2q4 -12 0 -24.5t-21 -16.5q-27 -6 -40 7t-13 28.5zM1227 1765q8 4 12 4l2 5l-7 -3.5t-7 -5.5zM1229 1784q4 0 8 8q-4 -4 -8 -6t0 -2zM1389 1784.5q0 15.5 13 26t44 -0.5h2q10 0 14 -14v-4v-2q4 -12 0 -24.5t-20 -16.5 q-27 -6 -40 7t-13 28.5zM1419 1765q8 4 13 4l2 5q-4 -2 -7.5 -3.5t-7.5 -5.5zM1421 1784q4 0 9 8q-4 -4 -8.5 -6t-0.5 -2zM1536 1546l94 -65l2 2l19 37q-23 12 -51.5 18t-63.5 8z" />
<glyph unicode="&#xd7;" horiz-adv-x="606" d="M18 184q23 88 80.5 160t128.5 133q-63 37 -114.5 63.5t-71.5 32.5h-2q-12 8 -13 20.5t15 16.5q10 0 24.5 -2t24.5 -8q41 -10 88 -31.5t96 -50.5q49 41 99.5 77t93.5 71q12 10 20.5 0.5t-0.5 -21.5q-31 -33 -74.5 -71.5t-90.5 -84.5q82 -53 149.5 -113.5t83.5 -109.5 q4 -14 -8 -18t-21 6q-8 14 -31.5 36.5t-57.5 49.5t-76 54.5t-85 54.5q-74 -70 -138 -141.5t-89 -131.5q-8 -10 -19.5 -8t-11.5 16z" />
<glyph unicode="&#xd8;" horiz-adv-x="2355" d="M57 446.5q-47 159.5 0 374.5q16 76 80 155t147 149.5t170 127t148 90.5q113 61 234 105q119 45 231 65q66 12 164 33t196 29q-31 10 -45 25.5t-9 21.5t33 -1t81 -42q57 0 107.5 -9t84.5 -32q8 -8 7 -18l-25 -50l-6 -6q70 -47 141.5 -96t138 -103.5t126 -114.5t108.5 -130 q55 -80 98 -168t56.5 -179t-8 -182.5t-95.5 -177.5q-70 -82 -151.5 -143t-172 -106.5t-188.5 -78t-199 -55.5q-152 -35 -332 -41t-357 21t-335.5 92.5t-269.5 175t-158 269zM75 568.5q7 -107.5 63.5 -208t164.5 -184.5q158 -123 363.5 -180t422 -57t427 50t380.5 140 q68 35 137.5 85t125 113.5t88 140.5t26.5 167q-6 96 -45 188t-98 166q-45 55 -114.5 126t-155.5 144.5t-183.5 147.5t-197.5 137q-78 -6 -154 -21.5t-123 -23.5q-135 -23 -270 -64.5t-261 -104t-240 -146.5t-204 -191q-84 -98 -121.5 -207.5t-30.5 -217zM338 -371 q8 84 72.5 205t165 265.5t228.5 301t262 311t266 299t240.5 261.5t183 197.5t97.5 109.5q10 14 22.5 11t8.5 -19q-59 -72 -149 -172.5t-200 -222t-230.5 -259t-241.5 -278.5t-234.5 -283.5t-207 -274.5t-160 -250t-92.5 -210q-8 -10 -19.5 -8t-11.5 16zM1536 1546l94 -65 l2 2l19 37q-23 12 -51.5 18t-63.5 8z" />
<glyph unicode="&#xd9;" horiz-adv-x="1994" d="M-510.5 1454q-5.5 12 6.5 23q100 68 216 111.5t233 74.5q66 18 142.5 35.5t141.5 23.5q49 6 80 8.5t66 -6.5q59 -10 84.5 -13t44 -9t41 -18.5t73.5 -38.5q68 -35 96.5 -98.5t33 -142.5t-11 -166t-40 -169t-51.5 -152.5t-43 -115.5q-29 -72 -58.5 -140.5t-58.5 -140.5 q-25 -66 -51 -131t-47 -133q-41 -145 -13.5 -230t104.5 -123t190.5 -34t240.5 38t258 92t243 128t192.5 146.5t109.5 148.5q23 129 32 259t25 259q6 39 13.5 100.5t18.5 128t23.5 127t26.5 95.5q8 23 25 6q41 -39 63.5 -104.5t31.5 -141.5t7 -157t-11 -153.5t-23.5 -128 t-28.5 -81.5q-16 -57 -51 -106.5t-72 -96.5q-10 -14 -21.5 -41t-23.5 -41q-12 -102 -19.5 -219t-1 -237.5t29 -241.5t69.5 -232q4 -14 -8.5 -18t-20.5 6q-57 119 -85 228.5t-35 219t-1 222t19 239.5q-143 -154 -326.5 -264t-382.5 -176q-92 -29 -187.5 -45t-179 -12 t-152.5 29.5t-110 80t-49 140.5t29 208q31 104 73 206t86 202t86 201.5t72 206.5q43 147 43 263.5t-48 194.5t-148.5 114t-259.5 21q-70 -4 -143.5 -19t-141.5 -34q-113 -31 -228.5 -72.5t-215.5 -109.5q-16 -6 -21.5 6zM1057 1950q-10 14 1 22t23 -2q33 -31 59.5 -51.5 t49 -42t46.5 -52t50 -79.5q6 -14 -5 -21.5t-21 5.5q-12 14 -38 37.5t-54.5 52t-58 62.5t-52.5 69zM1769 496q68 86 106 186t50 205.5t-2 211t-51 197.5q-6 -41 -16.5 -97t-19.5 -109.5t-15.5 -95.5t-8.5 -54q-16 -111 -19 -222.5t-24 -221.5z" />
<glyph unicode="&#xda;" horiz-adv-x="1994" d="M-510.5 1454.5q5.5 -12.5 21.5 -6.5q100 68 215.5 109.5t228.5 72.5q68 18 141.5 33.5t143.5 19.5q160 14 260 -21.5t148 -113.5t48 -194.5t-43 -263.5q-31 -104 -72.5 -206t-85.5 -202t-86 -201.5t-73 -206.5q-37 -123 -29 -208.5t49 -140t110 -80t152.5 -29.5t179 12 t187.5 45q199 66 382 176.5t327 263.5q-12 -127 -18.5 -239.5t0.5 -222t35 -219t85 -228.5q8 -10 20.5 -6t8.5 18q-47 111 -69.5 232t-29 241.5t1 237.5t19.5 219q12 14 23.5 41t21.5 41q37 47 71.5 96t51.5 107q14 27 28.5 82t23.5 127.5t11 153.5t-7 157t-31.5 141.5 t-63.5 104.5q-16 16 -25 -6q-14 -35 -26.5 -95.5t-23.5 -127t-18 -128t-14 -100.5q-16 -129 -25 -259t-32 -259q-29 -72 -109.5 -148.5t-192.5 -146.5t-243 -128t-258 -92t-240.5 -38t-190.5 34t-104.5 123t13.5 230q20 68 47 133.5t51 130.5q29 72 58.5 140.5t58.5 140.5 q16 45 43 115.5t51.5 152.5t40 169t11 166t-33 142.5t-96.5 98.5q-51 27 -73.5 39t-41 18t-44 9t-84.5 13q-35 8 -65.5 6.5t-80.5 -8.5q-66 -6 -142.5 -23.5t-141.5 -35.5q-117 -31 -232.5 -75t-216.5 -111q-12 -10 -6.5 -22.5zM1135 1722q25 35 62.5 65t78.5 57.5t83 55 t75 58.5q12 10 20 2.5t4 -23.5q-8 -23 -47 -56.5t-86 -67t-94 -63.5t-70 -44q-14 -10 -25.5 -3t-0.5 19zM1769 496q20 111 23.5 222t19.5 222q2 12 8.5 54t15.5 95.5t19.5 109.5t16.5 97q37 -92 51 -197.5t2 -211t-50 -205.5t-106 -186z" />
<glyph unicode="&#xdb;" horiz-adv-x="1994" d="M-510.5 1454q-5.5 12 6.5 23q100 68 216 111.5t233 74.5q66 18 142.5 35.5t141.5 23.5q49 6 80 8.5t66 -6.5q59 -10 84.5 -13t44 -9t41 -18.5t73.5 -38.5q68 -35 96.5 -98.5t33 -142.5t-11 -166t-40 -169t-51.5 -152.5t-43 -115.5q-29 -72 -58.5 -140.5t-58.5 -140.5 q-25 -66 -51 -131t-47 -133q-41 -145 -13.5 -230t104.5 -123t190.5 -34t240.5 38t258 92t243 128t192.5 146.5t109.5 148.5q23 129 32 259t25 259q6 39 13.5 100.5t18.5 128t23.5 127t26.5 95.5q8 23 25 6q41 -39 63.5 -104.5t31.5 -141.5t7 -157t-11 -153.5t-23.5 -128 t-28.5 -81.5q-16 -57 -51 -106.5t-72 -96.5q-10 -14 -21.5 -41t-23.5 -41q-12 -102 -19.5 -219t-1 -237.5t29 -241.5t69.5 -232q4 -14 -8.5 -18t-20.5 6q-57 119 -85 228.5t-35 219t-1 222t19 239.5q-143 -154 -326.5 -264t-382.5 -176q-92 -29 -187.5 -45t-179 -12 t-152.5 29.5t-110 80t-49 140.5t29 208q31 104 73 206t86 202t86 201.5t72 206.5q43 147 43 263.5t-48 194.5t-148.5 114t-259.5 21q-70 -4 -143.5 -19t-141.5 -34q-113 -31 -228.5 -72.5t-215.5 -109.5q-16 -6 -21.5 6zM1122 1723.5q-14 17.5 2 37.5l64 56q33 35 67 77.5 t95 85.5q18 12 40.5 -12t42 -61t33 -76t15.5 -53q4 -16 -11.5 -19.5t-19.5 10.5q-8 45 -36 78t-50 70q-27 -23 -50.5 -49.5t-48 -54t-50 -53t-56.5 -44.5q-23 -10 -37 7.5zM1769 496q68 86 106 186t50 205.5t-2 211t-51 197.5q-6 -41 -16.5 -97t-19.5 -109.5t-15.5 -95.5 t-8.5 -54q-16 -111 -19 -222.5t-24 -221.5z" />
<glyph unicode="&#xdc;" horiz-adv-x="1994" d="M-510.5 1454q-5.5 12 6.5 23q100 68 216 111.5t233 74.5q66 18 142.5 35.5t141.5 23.5q49 6 80 8.5t66 -6.5q59 -10 84.5 -13t44 -9t41 -18.5t73.5 -38.5q68 -35 96.5 -98.5t33 -142.5t-11 -166t-40 -169t-51.5 -152.5t-43 -115.5q-29 -72 -58.5 -140.5t-58.5 -140.5 q-25 -66 -51 -131t-47 -133q-41 -145 -13.5 -230t104.5 -123t190.5 -34t240.5 38t258 92t243 128t192.5 146.5t109.5 148.5q23 129 32 259t25 259q6 39 13.5 100.5t18.5 128t23.5 127t26.5 95.5q8 23 25 6q41 -39 63.5 -104.5t31.5 -141.5t7 -157t-11 -153.5t-23.5 -128 t-28.5 -81.5q-16 -57 -51 -106.5t-72 -96.5q-10 -14 -21.5 -41t-23.5 -41q-12 -102 -19.5 -219t-1 -237.5t29 -241.5t69.5 -232q4 -14 -8.5 -18t-20.5 6q-57 119 -85 228.5t-35 219t-1 222t19 239.5q-143 -154 -326.5 -264t-382.5 -176q-92 -29 -187.5 -45t-179 -12 t-152.5 29.5t-110 80t-49 140.5t29 208q31 104 73 206t86 202t86 201.5t72 206.5q43 147 43 263.5t-48 194.5t-148.5 114t-259.5 21q-70 -4 -143.5 -19t-141.5 -34q-113 -31 -228.5 -72.5t-215.5 -109.5q-16 -6 -21.5 6zM1161 1748q0 15 13.5 25.5t44.5 0.5h2q10 0 14 -15 v-4v-2q4 -12 0 -24.5t-21 -16.5q-27 -6 -40 7.5t-13 28.5zM1192 1729q8 4 12 4l2 4q-4 -2 -7 -3t-7 -5zM1194 1747q4 0 8 8q-4 -4 -8 -6t0 -2zM1354 1748q0 15 13 25.5t44 0.5h2q10 0 14 -15v-4v-2q4 -12 0 -24.5t-20 -16.5q-27 -6 -40 7.5t-13 28.5zM1384 1729q8 4 13 4 l2 4q-4 -2 -7.5 -3t-7.5 -5zM1386 1747q4 0 9 8q-4 -4 -8.5 -6t-0.5 -2zM1769 496q68 86 106 186t50 205.5t-2 211t-51 197.5q-6 -41 -16.5 -97t-19.5 -109.5t-15.5 -95.5t-8.5 -54q-16 -111 -19 -222.5t-24 -221.5z" />
<glyph unicode="&#xdd;" horiz-adv-x="1869" d="M-1135.5 1402q2.5 -9 17.5 -9q94 29 215 55.5t250 39.5t260 9t244.5 -40t203.5 -106.5t138 -189.5q18 -43 26 -95t10 -106.5t-1 -106.5t-9 -97q-8 -68 -25.5 -154t-38 -172t-41 -167t-32.5 -138q-4 -18 -10 -51t-8.5 -70t4 -70.5t28.5 -52.5q37 -31 90.5 -37t113.5 4.5 t123.5 33t123 49t111 53t85.5 45.5q76 41 169.5 95t189.5 117.5t192.5 136.5t182.5 152q23 -82 36 -156.5t15 -162.5q0 -57 -3 -107.5t-14 -99.5q-109 14 -234.5 3t-254.5 -38.5t-251 -65.5t-218 -75q-78 -29 -178.5 -73t-196.5 -102.5t-174 -128t-109.5 -149.5t-4 -169 t142.5 -183q94 -66 197.5 -86t208 -8t208 53t199.5 100.5t182 129t158 141.5q100 100 180 211q25 35 54.5 83t58 101t51 108.5t35.5 106.5q23 -12 41 -35.5t39 -40.5q14 -8 24 3.5t-4 21.5q-25 20 -45.5 47t-48.5 37q0 4 1 9t1 9q10 150 1 285t-48 279q84 84 146.5 170 t96.5 178q33 90 48.5 198.5t-4 209t-83 178t-186.5 108.5q-57 14 -103 3t-80 -42t-54.5 -75t-28.5 -95q-16 -104 0 -207.5t47 -207t69 -204t66 -198.5q-160 -160 -353.5 -286t-389.5 -230q-53 -29 -113.5 -61.5t-123 -59.5t-128 -44t-129.5 -17q-23 2 -44 10t-44 14 q-20 66 -13 148t25.5 164.5t41 157.5t34.5 126q16 72 24.5 125t13.5 103.5t7 103.5t4 125q4 115 -32.5 203t-101 151.5t-150.5 105.5t-181.5 65.5t-193.5 30.5t-188 3q-139 -8 -267.5 -38t-261.5 -64h-10l-10 -7h-6l2 -2q-10 -10 -7.5 -19zM-63.5 -656.5 q10.5 52.5 53.5 101.5q76 94 193.5 168t249.5 131t267.5 97t245.5 67q43 12 113.5 26.5t148.5 25.5t157 16.5t140 -1.5q-10 -41 -23.5 -79.5t-31.5 -81.5q-53 -117 -132 -227.5t-175 -206t-206 -175t-226 -135.5q-72 -35 -155 -61.5t-169 -33.5t-169 11.5t-152 73.5 q-45 37 -78 83t-47.5 97t-4 103.5zM510 1554q25 35 62.5 65t78.5 57.5t83 55t75 58.5q12 10 20.5 2.5t4.5 -23.5q-8 -23 -47 -56.5t-86.5 -67t-94.5 -63.5t-69 -44q-14 -10 -25.5 -3t-1.5 19zM1337 1356.5q2 60.5 21.5 112t59.5 80t112 12.5q55 -12 103 -51.5t77 -84.5 q49 -74 60.5 -155.5t-4 -163.5t-52.5 -160t-82 -145q-29 -41 -59.5 -81t-65.5 -77q-23 76 -49 149.5t-51 149.5t-43.5 151.5t-24.5 155.5q-4 47 -2 107.5z" />
<glyph unicode="&#xde;" horiz-adv-x="600" d="M70 -74q-4 362 0 747.5t8 747.5q0 16 13 18.5t18 -14.5q4 -86 7 -146t5 -118.5t3 -128t1 -174.5q18 0 55 -2t77 -5t77 -8t53 -9q104 -27 144 -65t33 -80t-50 -88t-103.5 -90t-129 -85t-123.5 -74q-16 -6 -21.5 6.5t6.5 22.5q31 23 85.5 56.5t109.5 72.5t101 80t62.5 79 t-9 68.5t-113.5 50.5q-16 2 -51 8.5t-75 11.5t-76 10t-52 7q-2 -270 -8 -486t-17 -415q-4 -16 -17 -15t-13 17z" />
<glyph unicode="&#xdf;" horiz-adv-x="899" d="M47 227.5q8 204.5 45 390.5q6 31 19.5 85.5t32 111.5t42 108.5t50.5 75.5q29 29 56 60t64 47q106 47 187.5 18.5t126.5 -120.5q20 -41 -1.5 -98.5t-57.5 -116t-70.5 -113.5t-38.5 -92q37 -33 98.5 -62.5t119.5 -66.5t98 -85t34 -118q-4 -59 -42 -115.5t-91 -104.5 t-112.5 -88t-106.5 -67q-14 -10 -40 -27.5t-54.5 -32t-56 -19.5t-46.5 14q-10 14 1 22t24 -2l2 -2q43 6 108.5 45t133 91t124 107.5t78.5 90.5q25 39 30 78t-18 77q-27 45 -67.5 76t-86.5 55.5t-93 47t-86 55.5q-4 6 -6.5 11t-2.5 14q8 51 39 102t63 101t53.5 101.5 t10.5 104.5q-6 37 -34.5 54.5t-64.5 22.5t-72 0t-58 -13q-59 -25 -98 -78t-66 -116.5t-43 -130.5t-29 -120q-35 -174 -46 -355t5 -360q6 -55 17.5 -108t24 -106.5t22.5 -107t12 -108.5q-2 -12 -14 -15t-16 11q-8 98 -33 188.5t-43 184.5q-35 193 -27 397.5z" />
<glyph unicode="&#xe0;" horiz-adv-x="448" d="M18 133q-6 39 15.5 78t58.5 70.5t84 53t91 26t79 -11t51 -56.5q4 -14 -8 -18.5t-20 6.5q-12 29 -42 36t-65 -2.5t-70.5 -30t-63.5 -46t-41 -54t-3 -51.5q31 -10 70 1t67 20q94 25 129 15.5t44 -38.5t7 -68.5t21 -78.5q6 -14 -5 -21.5t-22 4.5q-10 14 -14 39t-9 49.5 t-12.5 44t-19.5 23.5q-16 4 -45 -3t-62.5 -18.5t-69.5 -21.5t-65.5 -10t-51 13t-28.5 50zM141 668q-10 14 1.5 22t23.5 -2q33 -31 59.5 -51.5t49 -42t46 -52t50.5 -79.5q6 -14 -5.5 -21.5t-21.5 4.5q-12 14 -37.5 38t-54.5 52.5t-58.5 62.5t-52.5 69z" />
<glyph unicode="&#xe1;" horiz-adv-x="448" d="M18 133q6 -37 28 -50t51.5 -13t65.5 10t69.5 21.5t62.5 18.5t45 3q12 -4 19.5 -23.5t12.5 -44t9 -49t14 -39.5q10 -12 21.5 -5t5.5 22q-23 39 -21 78.5t-7 68.5t-44 38t-129 -15q-29 -8 -67.5 -19.5t-69.5 -1.5q-10 23 3 51.5t41 54t63.5 46t70.5 30t64.5 2t42.5 -35.5 q8 -10 20 -6t8 18q-16 41 -51 56.5t-79 11t-91 -26t-84 -53t-58.5 -70.5t-15.5 -78zM94 455q25 35 63 64.5t78.5 57t82.5 55t75 58.5q12 10 20.5 3t4.5 -23q-8 -23 -47 -56.5t-86 -67.5t-94.5 -63.5t-69.5 -44.5q-14 -10 -25.5 -3t-1.5 20z" />
<glyph unicode="&#xe2;" horiz-adv-x="448" d="M18 133q-6 39 15.5 78t58.5 70.5t84 53t91 26t79 -11t51 -56.5q4 -14 -8 -18.5t-20 6.5q-12 29 -42 36t-65 -2.5t-70.5 -30t-63.5 -46t-41 -54t-3 -51.5q31 -10 70 1t67 20q94 25 129 15.5t44 -38.5t7 -68.5t21 -78.5q6 -14 -5 -21.5t-22 4.5q-10 14 -14 39t-9 49.5 t-12.5 44t-19.5 23.5q-16 4 -45 -3t-62.5 -18.5t-69.5 -21.5t-65.5 -10t-51 13t-28.5 50zM54 461q-7 14 9 35l64 55q33 35 67 78t95 86q18 12 40.5 -12.5t42 -61.5t33 -76t15.5 -53q4 -16 -11.5 -19.5t-19.5 11.5q-8 45 -37.5 78.5t-52.5 70.5q-53 -45 -103.5 -102 t-111.5 -94q-23 -10 -30 4z" />
<glyph unicode="&#xe3;" horiz-adv-x="538" d="M18 133q-6 39 15.5 78t58.5 70.5t84 53t91 26t79 -11t51 -56.5q4 -14 -8 -18.5t-20 6.5q-12 29 -42 36t-65 -2.5t-70.5 -30t-63.5 -46t-41 -54t-3 -51.5q31 -10 70 1t67 20q94 25 129 15.5t44 -38.5t7 -68.5t21 -78.5q6 -14 -5 -21.5t-22 4.5q-10 14 -14 39t-9 49.5 t-12.5 44t-19.5 23.5q-16 4 -45 -3t-62.5 -18.5t-69.5 -21.5t-65.5 -10t-51 13t-28.5 50zM19.5 509q-7.5 9 3.5 19q23 23 43 44.5t43 41.5q43 43 73.5 33t55 -39.5t45 -64.5t45.5 -41q20 -6 40.5 0t40 17t39 24.5t37.5 21.5q14 4 19.5 -7t-4.5 -21q-25 -14 -58.5 -38 t-68.5 -37t-68 -10t-57 42q-16 25 -29.5 50t-38.5 42q-39 -10 -72.5 -33.5t-66.5 -48.5q-14 -4 -21.5 5z" />
<glyph unicode="&#xe4;" horiz-adv-x="448" d="M18 133q-6 39 15.5 78t58.5 70.5t84 53t91 26t79 -11t51 -56.5q4 -14 -8 -18.5t-20 6.5q-12 29 -42 36t-65 -2.5t-70.5 -30t-63.5 -46t-41 -54t-3 -51.5q31 -10 70 1t67 20q94 25 129 15.5t44 -38.5t7 -68.5t21 -78.5q6 -14 -5 -21.5t-22 4.5q-10 14 -14 39t-9 49.5 t-12.5 44t-19.5 23.5q-16 4 -45 -3t-62.5 -18.5t-69.5 -21.5t-65.5 -10t-51 13t-28.5 50zM109 502.5q0 15.5 13 26t44 -0.5h2q10 0 14 -14v-4v-2q4 -12 0 -24.5t-20 -16.5q-27 -6 -40 7t-13 28.5zM139 483q8 4 13 4l2 5q-4 -2 -7.5 -3.5t-7.5 -5.5zM141 502q4 0 9 8 q-4 -4 -8.5 -6t-0.5 -2zM301 502.5q0 15.5 13.5 26t43.5 -0.5h2q10 0 15 -14v-4v-2q4 -12 0 -24.5t-21 -16.5q-27 -6 -40 7t-13 28.5zM332 483q8 4 12 4l2 5l-7 -3.5t-7 -5.5zM334 502q4 0 8 8q-4 -4 -8 -6t0 -2z" />
<glyph unicode="&#xe5;" horiz-adv-x="495" d="M18 133q-6 39 15.5 78t58.5 70.5t84 53t91 26t79 -11t51 -56.5q4 -14 -8 -18.5t-20 6.5q-12 29 -42 36t-65 -2.5t-70.5 -30t-63.5 -46t-41 -54t-3 -51.5q31 -10 70 1t67 20q94 25 129 15.5t44 -38.5t7 -68.5t21 -78.5q6 -14 -5 -21.5t-22 4.5q-10 14 -14 39t-9 49.5 t-12.5 44t-19.5 23.5q-16 4 -45 -3t-62.5 -18.5t-69.5 -21.5t-65.5 -10t-51 13t-28.5 50zM70.5 496.5q7.5 35.5 40 72.5t75.5 56q-4 14 13 18q27 0 52 -2t50 -8q33 -6 67.5 -21.5t53 -38t14.5 -50t-49 -56.5q-41 -27 -94.5 -39t-102.5 -16q-74 -4 -100.5 22.5t-19 62z M118 513.5q-9 -21.5 1 -42.5q25 -8 49.5 -8t43.5 2t34.5 6t23.5 4q37 8 69 23.5t42 33t-7.5 36t-76.5 34.5l-70 -2l-4 8q-18 -4 -40.5 -18.5t-39 -34.5t-25.5 -41.5z" />
<glyph unicode="&#xe6;" horiz-adv-x="802" d="M12 133q-6 39 15.5 78t57.5 70.5t83 53t93 24.5t86 -15t63 -65q4 -14 -8.5 -18.5t-20.5 5.5q-23 35 -57.5 46.5t-71.5 4t-73 -28t-61.5 -47t-37.5 -56t-2 -52.5q31 -10 56.5 1t53.5 20q94 25 129 15.5t44.5 -38.5t7.5 -68.5t20 -78.5q6 -14 -5 -21.5t-22 4.5 q-10 14 -14 39t-9 49.5t-12.5 44t-19.5 23.5q-16 4 -42.5 -3t-57.5 -18.5t-62.5 -21.5t-59.5 -10t-47.5 13t-25.5 50zM327 114.5q1 28.5 13 61.5l25 51q27 51 63.5 95.5t65.5 70.5q12 12 31.5 22.5t41 14.5t41 -1t31.5 -23q10 -16 6 -35t-15.5 -36.5t-25.5 -31.5t-22 -20 q-29 -23 -78 -47.5t-107 -42.5q-20 -43 -14 -78q4 -31 38 -39t75 -4t80.5 14t58.5 16l123 43q16 4 20 -10t-12 -20q-41 -16 -81 -32.5t-81 -33.5q-33 -10 -66.5 -18t-68.5 -11q-53 0 -85 11.5t-45 33t-12 50zM438 256l58 29q20 12 31.5 21t19.5 18.5t16 20.5t23 30 q-12 4 -27 -5.5t-31 -23.5q-18 -16 -42.5 -38.5t-47.5 -51.5zM594 369l2 -2z" />
<glyph unicode="&#xe7;" horiz-adv-x="473" d="M24.5 152.5q-6.5 29.5 16.5 58.5q25 31 50.5 49.5t54 28.5t61.5 13t72 7q14 -2 16 -13t-12 -17q-23 -4 -47.5 -6.5t-49.5 -12.5q-37 -12 -62.5 -34.5t-31.5 -48t10.5 -48.5t65.5 -35q70 -16 125 -10t127 14q14 -2 16 -13t-12 -17q-45 -10 -71.5 -17.5t-45 -11.5t-33 -5 t-34.5 -1v-39t2 -39q20 -2 40.5 -3t36.5 -11q18 -10 26.5 -27.5t6.5 -38t-13 -38t-28 -27.5q-25 -14 -54.5 -17.5t-57.5 -13.5q-14 0 -16.5 10t7.5 21q14 8 27.5 13t28.5 11q18 10 32.5 17.5t18.5 27.5q2 4 -1 -1t-3 -3q-4 16 -17.5 20.5t-29 6.5t-29.5 5t-22 19 q-10 18 -2 50t14 57l-51 4q-25 2 -54.5 18.5t-50 42t-27 55z" />
<glyph unicode="&#xe8;" horiz-adv-x="573" d="M-74 152q-8 12 0 21t21 3q31 -20 82 -14t104 22q27 51 63.5 95.5t65.5 70.5q12 12 31.5 22.5t41 14.5t41 -1t32.5 -24q10 -16 6 -34.5t-15.5 -36t-26 -31.5t-22.5 -20q-29 -23 -78 -47.5t-106 -42.5q-20 -43 -14 -78q4 -31 37.5 -39t74.5 -4t81 14t58 16l123 43 q16 4 20.5 -10t-11.5 -20q-41 -16 -81 -32.5t-81 -33.5q-33 -10 -67 -18t-68 -11q-53 0 -85 11.5t-45.5 33t-12.5 50t14 61.5q-53 -12 -100.5 -10t-82.5 29zM141 668q-10 14 1.5 22t23.5 -2q33 -31 59.5 -51.5t49 -42t46 -52t50.5 -79.5q6 -14 -5.5 -21.5t-21.5 4.5 q-12 14 -37.5 38t-54.5 52.5t-58.5 62.5t-52.5 69zM207 213l57 29q20 12 31.5 21t20 18.5t16.5 20.5t22 30q-12 4 -26.5 -5.5t-30.5 -23.5q-18 -16 -43 -38.5t-47 -51.5zM362 326l3 -2z" />
<glyph unicode="&#xe9;" horiz-adv-x="573" d="M-74 152q35 -27 82 -29t101 10q-12 -33 -13.5 -61.5t12 -50t45 -33t85.5 -11.5q35 2 68.5 10.5t66.5 18.5q41 16 81 32.5t81 33.5q16 6 12 20t-21 10l-123 -43q-18 -6 -58 -16t-81 -14t-74.5 4t-37.5 39q-6 35 14 78q57 18 106.5 42.5t77.5 47.5q8 6 22.5 20t26 31.5 t15.5 36t-6 34.5q-12 18 -32 23.5t-41.5 1.5t-41 -14.5t-31.5 -22.5q-29 -27 -65.5 -70.5t-63.5 -95.5q-53 -16 -104.5 -22t-81.5 14q-12 6 -20.5 -3t-0.5 -21zM109 455q25 35 62.5 64.5t78.5 57t83 55t75 58.5q12 10 20 3t4 -23q-8 -23 -47 -56.5t-86 -67.5t-94 -63.5 t-70 -44.5q-14 -10 -25.5 -3t-0.5 20zM207 213q23 29 47.5 51.5t42.5 38.5q16 14 30.5 23.5t26.5 5.5q-14 -18 -22 -29.5t-16.5 -21t-19.5 -18.5t-32 -21zM362 326l3 -2z" />
<glyph unicode="&#xea;" horiz-adv-x="573" d="M-74 152q-8 12 0 21t21 3q31 -20 82 -14t104 22q27 51 63.5 95.5t65.5 70.5q12 12 31.5 22.5t41 14.5t41 -1t32.5 -24q10 -16 6 -34.5t-15.5 -36t-26 -31.5t-22.5 -20q-29 -23 -78 -47.5t-106 -42.5q-20 -43 -14 -78q4 -31 37.5 -39t74.5 -4t81 14t58 16l123 43 q16 4 20.5 -10t-11.5 -20q-41 -16 -81 -32.5t-81 -33.5q-33 -10 -67 -18t-68 -11q-53 0 -85 11.5t-45.5 33t-12.5 50t14 61.5q-53 -12 -100.5 -10t-82.5 29zM101 461q-7 14 10 35l63 55q33 35 67 78t95 86q18 12 40.5 -12.5t42 -61.5t33 -76t15.5 -53q4 -16 -11.5 -19.5 t-19.5 11.5q-8 45 -37.5 78.5t-52.5 70.5q-53 -45 -103 -102t-112 -94q-23 -10 -30 4zM207 213l57 29q20 12 31.5 21t20 18.5t16.5 20.5t22 30q-12 4 -26.5 -5.5t-30.5 -23.5q-18 -16 -43 -38.5t-47 -51.5zM362 326l3 -2z" />
<glyph unicode="&#xeb;" horiz-adv-x="573" d="M-74 152q-8 12 0 21t21 3q31 -20 82 -14t104 22q27 51 63.5 95.5t65.5 70.5q12 12 31.5 22.5t41 14.5t41 -1t32.5 -24q10 -16 6 -34.5t-15.5 -36t-26 -31.5t-22.5 -20q-29 -23 -78 -47.5t-106 -42.5q-20 -43 -14 -78q4 -31 37.5 -39t74.5 -4t81 14t58 16l123 43 q16 4 20.5 -10t-11.5 -20q-41 -16 -81 -32.5t-81 -33.5q-33 -10 -67 -18t-68 -11q-53 0 -85 11.5t-45.5 33t-12.5 50t14 61.5q-53 -12 -100.5 -10t-82.5 29zM164 502.5q0 15.5 13 26t44 -0.5h2q10 0 15 -14v-4v-2q4 -12 -0.5 -24.5t-20.5 -16.5q-27 -6 -40 7t-13 28.5z M195 483q8 4 12 4l2 5l-7 -3.5t-7 -5.5zM197 502q4 0 8 8q-4 -4 -8 -6t0 -2zM207 213l57 29q20 12 31.5 21t20 18.5t16.5 20.5t22 30q-12 4 -26.5 -5.5t-30.5 -23.5q-18 -16 -43 -38.5t-47 -51.5zM356 502.5q0 15.5 13.5 26t44.5 -0.5h2q10 0 14 -14v-4v-2q4 -12 0 -24.5 t-20 -16.5q-27 -6 -40.5 7t-13.5 28.5zM362 326l3 -2zM387 483q8 4 12 4l2 5l-7 -3.5t-7 -5.5zM389 502q4 0 8 8q-4 -4 -8 -6t0 -2z" />
<glyph unicode="&#xec;" horiz-adv-x="241" d="M12 584q-10 14 1.5 22t23.5 -2q33 -31 50 -39t30.5 -15t28 -24.5t40.5 -66.5q6 -14 -5 -21.5t-21 4.5q-12 14 -28.5 25.5t-36 26t-40 35t-43.5 55.5zM60 8q1 41 2 84t5.5 84t8.5 76v-14q4 23 5 51.5t-15 44.5q-8 12 0 21.5t20 2.5q35 -25 43 -82t2 -122.5t-19.5 -129 t-19.5 -96.5q-4 -16 -17.5 -15t-13.5 17q-2 37 -1 78z" />
<glyph unicode="&#xed;" horiz-adv-x="296" d="M31 477q25 35 44 53.5t38.5 31.5t43 28.5t56.5 46.5q12 10 20.5 2.5t4.5 -23.5q-8 -23 -29 -44t-46.5 -41.5t-54 -38t-51.5 -31.5q-14 -10 -25.5 -3t-0.5 19zM112 9q-1 -42 1 -79q0 -16 13 -17t17 15q6 33 19.5 97.5t19.5 132t-2 126t-43 83.5q-12 6 -20 -3.5t0 -21.5 q16 -16 15 -45t-5 -51v14q-4 -35 -8 -78t-5 -87t-2 -86z" />
<glyph unicode="&#xee;" horiz-adv-x="264" d="M13 493.5q-7 14.5 10 34.5q39 39 55 58.5t22 30t10.5 15.5t20.5 15q18 12 36.5 -5t34 -46t25 -60.5t11.5 -46.5q4 -16 -11.5 -19t-19.5 11q-4 23 -10.5 35t-14.5 21.5t-18 19.5t-23 29q-27 -23 -33 -31t-10 -14t-13 -16.5t-42 -35.5q-23 -10 -30 4.5zM81 11q1 44 2 90 t5 91.5t8 79.5v-14q4 23 5 51.5t-15 44.5q-8 12 0 21.5t20 3.5q35 -25 43.5 -85.5t2 -130t-19.5 -136t-19 -99.5q-4 -16 -17.5 -15t-13.5 17q-2 37 -1 81z" />
<glyph unicode="&#xef;" horiz-adv-x="253" d="M10 525.5q0 15.5 13.5 25.5t44.5 0h2q10 0 14 -14v-5v-2q4 -12 0 -24t-21 -17q-27 -6 -40 7.5t-13 29zM41 506q8 4 12 4l2 4q-4 -2 -7 -3t-7 -5zM43 524q4 0 8 8q-4 -4 -8 -6t0 -2zM83 12q1 45 2 93.5t5 93.5t8 80v-15q4 23 5 51.5t-15 44.5q-8 12 0 21.5t21 3.5 q35 -25 43 -86t1.5 -132t-19.5 -138.5t-19 -100.5q-4 -16 -17.5 -15t-13.5 17q-2 37 -1 82zM147 525.5q0 15.5 13.5 25.5t44.5 0h2q10 0 14 -14v-5v-2q4 -12 0 -24t-20 -17q-27 -6 -40.5 7.5t-13.5 29zM178 506q8 4 12 4l3 4q-4 -2 -7.5 -3t-7.5 -5zM180 524q4 0 8 8 q-4 -4 -8 -6t0 -2z" />
<glyph unicode="&#xf0;" horiz-adv-x="774" d="M41 1247q-4 16 9 22.5t20 -9.5q57 -121 145 -227.5t172 -213.5q74 35 139.5 65.5t89.5 47.5q14 4 19.5 -7.5t-4.5 -21.5q-47 -39 -94.5 -75.5t-108.5 -63.5q25 -23 64.5 -72t80.5 -113.5t75 -137t49.5 -143.5t6 -133.5t-58.5 -105.5q-49 -39 -91 -60.5t-85 -28.5t-92 -2 t-111 20q-59 14 -99 43.5t-83 68.5q-37 35 -25.5 78t51.5 84t100 74t120.5 47t112 4t75.5 -57q14 -10 4 -21.5t-24 -3.5q-49 29 -111.5 29t-119 -18.5t-98.5 -52.5t-49 -72.5t27.5 -78.5t133.5 -73q47 -14 105 -17.5t110.5 11t92.5 49.5t50 96q8 53 -1 105.5t-29.5 103.5 t-47 98t-53.5 90t-38 59.5t-20.5 27t-21.5 25.5t-43 56q-25 -8 -57.5 -18t-66.5 -21.5t-63.5 -23.5t-45.5 -25q-8 4 -12.5 9.5t-0.5 15.5q8 14 67.5 47t137.5 70l-92 125q-57 78 -114.5 156.5t-96.5 168.5z" />
<glyph unicode="&#xf1;" horiz-adv-x="598" d="M39 330q-8 12 0 21t20 3q27 -12 43.5 -49t26.5 -82t16.5 -87t12.5 -64q29 23 50 63.5t44 71.5q16 20 46 48t58 24q37 -6 61.5 -20.5t41 -36t29 -49.5t24.5 -58q6 -16 13 -39t20 -35q14 -10 4 -21.5t-25 -3.5q-18 16 -29.5 39t-20.5 47.5t-19.5 47t-28.5 36.5 q-47 39 -79 27t-59.5 -48t-56 -83t-67.5 -78q-18 -6 -35 4q-29 23 -35 67t-7 93t-8 93t-40 69zM50.5 515q-7.5 9 2.5 20q23 23 43.5 44t42.5 42q43 43 74 32.5t55.5 -40t45 -64.5t44.5 -41q20 -6 41 0t40.5 17.5t39 24.5t37.5 21q14 4 19.5 -7t-5.5 -21q-25 -14 -58.5 -38 t-68 -37t-67.5 -10t-57 42q-16 25 -29.5 50t-38.5 42q-39 -10 -72.5 -33.5t-66.5 -48.5q-14 -4 -21.5 5z" />
<glyph unicode="&#xf2;" d="M9 177q9 42 52 85q25 25 57 40t66.5 26.5t70.5 16.5t67 7q53 4 97 -2t75 -51q6 -14 -5.5 -21.5t-21.5 5.5q-25 33 -85 33.5t-127 -17.5t-122 -51t-67 -70q-4 -10 -1 -22.5t3 -24.5q39 -39 97 -50t121.5 -4t123 28.5t100.5 50.5q0 14 -2 20q-53 31 -108.5 50.5 t-114.5 39.5q-16 4 -13.5 19.5t19.5 11.5q18 -6 56 -14.5t79 -20.5t76 -27.5t47 -31.5q8 -10 9 -31.5t1 -28.5q-2 -10 -10 -20q-25 -18 -39 -29.5t-27.5 -18.5t-33 -14.5t-52.5 -15.5q-47 -12 -111.5 -20.5t-115.5 -4.5q-55 6 -95 28t-57.5 54.5t-8.5 74.5zM160 668 q-10 14 1 22t23 -2q33 -31 59.5 -51.5t49 -42t46 -52t50.5 -79.5q6 -14 -5 -21.5t-22 4.5q-12 14 -37.5 38t-54 52.5t-58 62.5t-52.5 69z" />
<glyph unicode="&#xf3;" d="M9 177q-9 -42 8.5 -74.5t57.5 -54t95 -28.5q51 -4 115.5 4.5t111.5 20.5q33 8 52.5 15.5t33 14.5t27.5 18t39 30q8 10 10 20q0 6 -1 28t-9 32q-12 16 -47 31.5t-76 27.5t-79 20.5t-56 14.5q-16 4 -19.5 -11.5t13.5 -19.5q59 -20 114.5 -39.5t108.5 -50.5q2 -6 2 -20 q-41 -29 -100.5 -50.5t-123 -28.5t-122 4t-96.5 50q0 12 -3.5 24.5t1.5 22.5q12 37 67 70t122 51t127 17t85 -33q10 -12 21.5 -5t5.5 21q-31 45 -75 51t-97 2q-31 -2 -67 -7t-70.5 -16.5t-66.5 -26.5t-57 -40q-43 -43 -52 -85zM123 455q25 35 62.5 64.5t78.5 57t83 55 t75 58.5q12 10 20 3t4 -23q-8 -23 -47 -56.5t-86 -67.5t-94 -63.5t-69 -44.5q-14 -10 -25.5 -3t-1.5 20z" />
<glyph unicode="&#xf4;" d="M9 177q9 42 52 85q25 25 57 40t66.5 26.5t70.5 16.5t67 7q53 4 97 -2t75 -51q6 -14 -5.5 -21.5t-21.5 5.5q-25 33 -85 33.5t-127 -17.5t-122 -51t-67 -70q-4 -10 -1 -22.5t3 -24.5q39 -39 97 -50t121.5 -4t123 28.5t100.5 50.5q0 14 -2 20q-53 31 -108.5 50.5 t-114.5 39.5q-16 4 -13.5 19.5t19.5 11.5q18 -6 56 -14.5t79 -20.5t76 -27.5t47 -31.5q8 -10 9 -31.5t1 -28.5q-2 -10 -10 -20q-25 -18 -39 -29.5t-27.5 -18.5t-33 -14.5t-52.5 -15.5q-47 -12 -111.5 -20.5t-115.5 -4.5q-55 6 -95 28t-57.5 54.5t-8.5 74.5zM85 461 q-7 14 9 35l64 55q33 35 66.5 78t94.5 86q18 12 41 -12.5t42.5 -61.5t33 -76t15.5 -53q4 -16 -11.5 -19.5t-19.5 11.5q-8 45 -38 78.5t-52 70.5q-53 -45 -103.5 -102t-111.5 -94q-23 -10 -30 4z" />
<glyph unicode="&#xf5;" d="M9 177q9 42 52 85q25 25 57 40t66.5 26.5t70.5 16.5t67 7q53 4 97 -2t75 -51q6 -14 -5.5 -21.5t-21.5 5.5q-25 33 -85 33.5t-127 -17.5t-122 -51t-67 -70q-4 -10 -1 -22.5t3 -24.5q39 -39 97 -50t121.5 -4t123 28.5t100.5 50.5q0 14 -2 20q-53 31 -108.5 50.5 t-114.5 39.5q-16 4 -13.5 19.5t19.5 11.5q18 -6 56 -14.5t79 -20.5t76 -27.5t47 -31.5q8 -10 9 -31.5t1 -28.5q-2 -10 -10 -20q-25 -18 -39 -29.5t-27.5 -18.5t-33 -14.5t-52.5 -15.5q-47 -12 -111.5 -20.5t-115.5 -4.5q-55 6 -95 28t-57.5 54.5t-8.5 74.5zM50.5 515 q-7.5 9 2.5 20q23 23 43.5 44t42.5 42q43 43 74 32.5t55.5 -40t45 -64.5t44.5 -41q20 -6 41 0t40.5 17.5t39 24.5t37.5 21q14 4 19.5 -7t-5.5 -21q-25 -14 -58.5 -38t-68 -37t-67.5 -10t-57 42q-16 25 -29.5 50t-38.5 42q-39 -10 -72.5 -33.5t-66.5 -48.5q-14 -4 -21.5 5z " />
<glyph unicode="&#xf6;" d="M9 177q9 42 52 85q25 25 57 40t66.5 26.5t70.5 16.5t67 7q53 4 97 -2t75 -51q6 -14 -5.5 -21.5t-21.5 5.5q-25 33 -85 33.5t-127 -17.5t-122 -51t-67 -70q-4 -10 -1 -22.5t3 -24.5q39 -39 97 -50t121.5 -4t123 28.5t100.5 50.5q0 14 -2 20q-53 31 -108.5 50.5 t-114.5 39.5q-16 4 -13.5 19.5t19.5 11.5q18 -6 56 -14.5t79 -20.5t76 -27.5t47 -31.5q8 -10 9 -31.5t1 -28.5q-2 -10 -10 -20q-25 -18 -39 -29.5t-27.5 -18.5t-33 -14.5t-52.5 -15.5q-47 -12 -111.5 -20.5t-115.5 -4.5q-55 6 -95 28t-57.5 54.5t-8.5 74.5zM141 502.5 q0 15.5 13.5 26t44.5 -0.5h2q10 0 14 -14v-4v-2q4 -12 0 -24.5t-20 -16.5q-27 -6 -40.5 7t-13.5 28.5zM172 483q8 4 12 4l2 5l-7 -3.5t-7 -5.5zM174 502q4 0 8 8q-4 -4 -8 -6t0 -2zM334 502.5q0 15.5 13 26t44 -0.5h2q10 0 15 -14v-4v-2q4 -12 -0.5 -24.5t-20.5 -16.5 q-27 -6 -40 7t-13 28.5zM365 483q8 4 12 4l2 5l-7 -3.5t-7 -5.5zM367 502q4 0 8 8q-4 -4 -8 -6t0 -2z" />
<glyph unicode="&#xf7;" horiz-adv-x="763" d="M46 426q1 12 13 14q164 10 325 17.5t323 -0.5q16 -2 16 -16.5t-16 -14.5q-166 -14 -324 -20t-324 4q-14 4 -13 16zM334 254q-4 10 2 27q8 16 23.5 24t34 9t36 -5t27.5 -20q14 -10 4 -21.5t-25 -3.5q-2 0 -3 1t-3 1q-4 -18 -15.5 -27.5t-26.5 -10.5t-30.5 5.5t-23.5 20.5z M335 627.5q-3 15.5 15 29.5h8q12 18 37 8t35 -22q4 -27 -20 -35q-20 -10 -52 -4q-20 8 -23 23.5z" />
<glyph unicode="&#xf8;" d="M9 177q9 42 52 85q25 25 57 40t66.5 26.5t70.5 16.5t67 7q53 4 97 -2t75 -51q6 -14 -5.5 -21.5t-21.5 5.5q-25 33 -85 33.5t-127 -17.5t-122 -51t-67 -70q-4 -10 -1 -22.5t3 -24.5q39 -39 97 -50t121.5 -4t123 28.5t100.5 50.5q0 14 -2 20q-53 31 -108.5 50.5 t-114.5 39.5q-16 4 -13.5 19.5t19.5 11.5q18 -6 56 -14.5t79 -20.5t76 -27.5t47 -31.5q8 -10 9 -31.5t1 -28.5q-2 -10 -10 -20q-25 -18 -39 -29.5t-27.5 -18.5t-33 -14.5t-52.5 -15.5q-47 -12 -111.5 -20.5t-115.5 -4.5q-55 6 -95 28t-57.5 54.5t-8.5 74.5zM176 -188 q12 92 43 197.5t71 201.5t83 174t76 119q10 12 22 10t8 -18q-61 -92 -100 -192.5t-67.5 -194t-52 -173t-52.5 -133.5q-8 -10 -19.5 -8t-11.5 17z" />
<glyph unicode="&#xf9;" horiz-adv-x="327" d="M16 668q-10 14 1.5 22t23.5 -2q33 -31 59.5 -51.5t49 -42t46 -52t50.5 -79.5q6 -14 -5.5 -21.5t-21.5 4.5q-12 14 -37.5 38t-54.5 52.5t-58.5 62.5t-52.5 69zM23 256v4q0 16 14 17.5t18 -15.5q6 -57 18.5 -121.5t67.5 -109.5q20 8 37 51t27 95t15 101.5t7 71.5 q6 14 16.5 13t14.5 -15q0 -41 2 -99.5t-7 -114.5t-33.5 -102t-74.5 -65q-10 -2 -14 0t-14 6q-66 59 -80 129t-14 154z" />
<glyph unicode="&#xfa;" horiz-adv-x="327" d="M23 256q0 -84 14 -154t80 -129q10 -4 14 -6t14 0q49 18 74 64.5t34 102.5t7 114.5t-2 99.5q-4 14 -14.5 15.5t-16.5 -13.5q-2 -23 -7 -72t-15 -101t-26.5 -95t-37.5 -51q-55 45 -67.5 109.5t-18.5 121.5q-4 16 -18 15t-14 -17v-4zM33 455q25 35 50.5 57.5t53 41.5 t57 39.5t62.5 51.5q12 10 20.5 3t4.5 -23q-8 -23 -35 -49.5t-60.5 -52t-68.5 -48t-58 -37.5q-14 -10 -25 -3t-1 20z" />
<glyph unicode="&#xfb;" horiz-adv-x="327" d="M-44 461q-7 14 9 35l64 55q33 35 66.5 78t94.5 86q18 12 41 -12.5t42.5 -61.5t32.5 -76t16 -53q4 -16 -11.5 -19.5t-19.5 11.5q-8 45 -38 78.5t-52 70.5q-53 -45 -103.5 -102t-111.5 -94q-23 -10 -30 4zM23 256v4q0 16 14 17.5t18 -15.5q6 -57 18.5 -121.5t67.5 -109.5 q20 8 37 51t27 95t15 101.5t7 71.5q6 14 16.5 13t14.5 -15q0 -41 2 -99.5t-7 -114.5t-33.5 -102t-74.5 -65q-10 -2 -14 0t-14 6q-66 59 -80 129t-14 154z" />
<glyph unicode="&#xfc;" horiz-adv-x="327" d="M2 502.5q0 15.5 13.5 26t43.5 -0.5h2q10 0 15 -14v-4v-2q4 -12 0 -24.5t-21 -16.5q-27 -6 -40 7t-13 28.5zM23 256v4q0 16 14 17.5t18 -15.5q6 -57 18.5 -121.5t67.5 -109.5q20 8 37 51t27 95t15 101.5t7 71.5q6 14 16.5 13t14.5 -15q0 -41 2 -99.5t-7 -114.5t-33.5 -102 t-74.5 -65q-10 -2 -14 0t-14 6q-66 59 -80 129t-14 154zM33 483q8 4 12 4l2 5l-7 -3.5t-7 -5.5zM35 502q4 0 8 8q-4 -4 -8 -6t0 -2zM195 502.5q0 15.5 13 26t44 -0.5h2q10 0 14 -14v-4v-2q4 -12 0 -24.5t-20 -16.5q-27 -6 -40 7t-13 28.5zM225 483q8 4 13 4l2 5 q-4 -2 -7.5 -3.5t-7.5 -5.5zM227 502q4 0 9 8q-4 -4 -8.5 -6t-0.5 -2z" />
<glyph unicode="&#xfd;" horiz-adv-x="563" d="M-74 -633q43 -53 101.5 -76.5t118 -20.5t116.5 31.5t100 82.5q41 51 70 120.5t45.5 146.5t18.5 152.5t-9 139.5q-4 29 -8 56.5t-12 53.5q-4 16 -14.5 44t-24.5 55.5t-33.5 50t-40.5 26.5q-59 -35 -107 -66.5t-84 -33.5t-57.5 39t-25.5 154q-4 16 -17.5 13.5t-13.5 -18.5 q-2 -29 0 -66.5t8 -74.5t17.5 -67.5t30 -47t44 -11.5t60.5 40q53 53 127 88q53 -63 76.5 -153.5t22.5 -186.5t-21.5 -190t-53.5 -166q-29 -61 -78 -104.5t-106 -58.5t-116.5 0t-108.5 69q-12 10 -23.5 2t-1.5 -23zM106 473q25 35 63 64.5t79 57.5t83 55.5t75 58.5 q12 10 20 2.5t4 -23.5q-8 -23 -47 -56.5t-86 -67.5t-94 -63.5t-70 -43.5q-14 -10 -25.5 -3t-1.5 19z" />
<glyph unicode="&#xfe;" horiz-adv-x="495" d="M68 6q0 193 1 389.5t4 389t5 372.5q0 16 13 18.5t18 -14.5q4 -90 7 -149.5t5 -111.5t3 -109.5t1 -141.5q55 23 106.5 3.5t93.5 -64.5t72.5 -108.5t45 -129t9 -125t-33.5 -98.5q-35 -47 -90.5 -69.5t-114.5 -24.5q-14 0 -32.5 1t-33 6t-21.5 15.5t3 30.5q10 12 21.5 7 t7.5 -19l-2 -2q6 -2 25.5 -4t47 2t61.5 19t66 48q25 25 31 70t-1 99t-26.5 109.5t-46 101.5t-58.5 77t-62 33q-23 4 -37.5 0t-30.5 -13q0 -100 -2 -230t-5 -265t-7.5 -263t-10.5 -225q-4 -16 -17 -15t-13 17q-2 180 -2 373z" />
<glyph unicode="&#xff;" horiz-adv-x="550" d="M-74 -633q-10 14 1.5 22.5t23.5 -1.5q49 -53 108.5 -68.5t116.5 -0.5t106.5 58t77.5 105q33 72 53.5 166t21.5 190t-22.5 186.5t-76.5 153.5q-74 -35 -127 -88q-35 -35 -60.5 -40t-44 11.5t-30 47t-17.5 67.5t-8 74.5t0 66.5q0 16 13.5 18.5t17.5 -13.5q4 -113 25.5 -154 t57.5 -39t84 34t107 66q20 -4 40 -26.5t34 -50t24.5 -55t14.5 -44.5q8 -27 12 -54.5t8 -55.5q10 -63 8.5 -139t-18 -153t-45.5 -146.5t-70 -120.5q-43 -53 -100 -82t-116.5 -32t-118 20.5t-101.5 76.5zM106 490.5q0 15.5 13.5 25.5t44.5 0h2q10 0 14 -14v-4v-2 q4 -12 0 -24.5t-20 -16.5q-27 -6 -40.5 7t-13.5 28.5zM137 471q8 4 13 4l2 4q-4 -2 -7.5 -3t-7.5 -5zM139 489q4 0 8 9q-4 -4 -8 -6.5t0 -2.5zM299 490.5q0 15.5 13.5 25.5t43.5 0h2q10 0 15 -14v-4v-2q4 -12 0 -24.5t-21 -16.5q-27 -6 -40 7t-13 28.5zM330 471q8 4 12 4 l2 4q-4 -2 -7 -3t-7 -5zM332 489q4 0 8 9q-4 -4 -8 -6.5t0 -2.5z" />
<glyph unicode="&#x152;" horiz-adv-x="1757" d="M7 819.5q-1 100.5 21.5 190.5t75.5 157q39 49 69 85t60.5 66t68.5 58.5t91 65.5q51 33 120 55.5t148.5 31.5t165.5 3t170 -29q0 12 -2 13.5t-3 -1t-3 -1t-4 13.5l-6 4q-10 8 -9 17.5t13 13.5q4 10 14.5 10t16.5 -10v-9q39 -4 79 4.5t81 10.5q133 6 262 5t260 -11 q16 -2 16 -16.5t-16 -14.5q-49 -2 -139.5 -7t-191.5 -10.5t-195.5 -5.5t-149.5 11q14 -94 24.5 -173t17.5 -156t12 -156t7 -173q111 10 216.5 17.5t218.5 -0.5h2q2 -2 6 -2l2 -3q2 0 2 -2q10 -10 0 -20q-4 -6 -12 -6q-111 -10 -217.5 -19.5t-217.5 -3.5q2 -111 1 -210 t-3 -195t-6 -194.5t-8 -211.5q78 8 152.5 16.5t152.5 10.5q66 2 139.5 -10.5t139.5 -1.5q4 10 14 11t16 -11q0 -2 1 -3t1 -6q2 -12 -12 -20q-43 -18 -96 -16t-100 0q-104 -2 -209 -4.5t-230 -6.5q0 16 -1 19l-1 4v2v18q-227 -59 -399 -35.5t-307 136.5q-68 51 -126.5 130 t-100.5 173t-66.5 197.5t-25.5 204zM83 883.5q-9 -142.5 27.5 -283.5t115.5 -269t190 -212q96 -72 250.5 -97.5t365.5 25.5l-4 770q-2 168 -5 322.5t-17 324.5q-61 8 -135 14.5t-151 2.5t-152.5 -22.5t-141.5 -61.5q-78 -49 -149.5 -111.5t-118.5 -146.5 q-66 -113 -75 -255.5z" />
<glyph unicode="&#x153;" horiz-adv-x="829" d="M12 196.5q-2 36.5 21 65.5q43 51 96 78t108.5 34t108.5 -2.5t96 -27.5q14 -2 12.5 -16.5t-16.5 -20.5q-47 29 -106.5 30t-113.5 -17.5t-98 -50t-61.5 -64.5t-2 -63.5t80.5 -47.5q35 -8 57.5 -11t42 -3t42 3t59.5 7q14 -2 16 -13t-12 -18q-25 -6 -39 -13t-34.5 -11 t-52.5 -4t-91 6q-25 2 -51.5 27.5t-43 60.5t-18.5 71.5zM345 104.5q1 28.5 13 61.5l25 51q27 51 63.5 95t65.5 71q12 12 31.5 22.5t41 14.5t41 -1t31.5 -24q10 -16 6 -34.5t-15 -36t-25.5 -31.5t-22.5 -21q-29 -23 -78 -47t-106 -43q-20 -43 -15 -78q4 -31 38 -39t75 -3.5 t81 14.5t58 16l123 43q16 4 20.5 -10t-12.5 -21q-41 -16 -80.5 -32.5t-80.5 -32.5q-33 -10 -67 -18.5t-69 -10.5q-53 0 -84.5 11.5t-45 33t-12.5 50zM457 246l57 28q20 12 31.5 21.5t19.5 19t16.5 20.5t22.5 30q-12 4 -26.5 -5.5t-30.5 -23.5q-18 -16 -43 -39t-47 -51z M612 358l2 -2z" />
<glyph unicode="&#x178;" horiz-adv-x="1837" d="M-1135.5 1402q-3.5 9 7.5 19l-2 2h6l10 7h10q133 35 261 64.5t268 37.5q90 4 188 -3t193.5 -30.5t181.5 -65.5t150.5 -105.5t101 -152t32.5 -202.5q-2 -72 -4 -125t-7 -103.5t-13 -103.5t-25 -125q-12 -51 -34.5 -126t-41 -157.5t-25.5 -164.5t13 -148q23 -6 44.5 -14 t43.5 -10q63 0 129 17t128.5 44t123 59.5t113.5 61.5q197 104 390 230t353 286q-29 98 -66.5 198.5t-68.5 204t-47 207t0 207.5q8 51 28.5 95t54.5 75t80 42t103 -3q123 -31 186.5 -108.5t83 -178t4 -209t-48.5 -198.5q-35 -92 -97 -178t-146 -170q39 -143 48 -278.5 t-1 -285.5q0 -4 -1 -9t-1 -9q29 -10 49 -37t45 -47q14 -10 4 -21.5t-24 -3.5q-20 16 -39 40t-41 36q-12 -51 -35 -106.5t-51.5 -108.5t-58 -101t-54.5 -83q-80 -111 -180 -211q-72 -72 -158 -141.5t-182 -129t-199.5 -100.5t-208 -53t-208 8.5t-197.5 85.5 q-115 94 -142.5 183t4 169t109.5 149.5t174 128t196.5 102.5t178.5 73q96 37 218 75t251 65.5t255 38.5t234 -3q10 49 13.5 99.5t3.5 107.5q-2 88 -15.5 163t-35.5 156q-86 -80 -182.5 -152.5t-192.5 -136t-189.5 -117.5t-169.5 -95q-35 -18 -86 -45t-110.5 -53.5t-123 -49 t-123.5 -33t-113.5 -4.5t-90.5 37q-23 18 -29 52t-3.5 71t8.5 69.5t10 51.5q12 57 32.5 138t41 167t38 172t25.5 154q6 45 9 97t1 106.5t-10 106.5t-26 95q-47 119 -137.5 189.5t-204 106.5t-244.5 40t-260 -9t-250 -40t-215 -55q-14 0 -17.5 9zM-63.5 -656.5 q-10.5 -52.5 4 -103.5t47 -97t78.5 -83q70 -55 152.5 -73.5t168.5 -11.5t169 33.5t155 61.5q117 55 226.5 135t205.5 175.5t175 206t132 227.5q18 43 31.5 81.5t23.5 79.5q-61 6 -140 1t-157 -16t-148.5 -25.5t-113.5 -26.5q-111 -27 -246 -67t-267 -97t-249.5 -131 t-193.5 -168q-43 -49 -53.5 -101.5zM651 1748q0 15 13.5 25.5t44.5 0.5h2q10 0 14 -15v-4v-2q4 -12 0 -24.5t-20 -16.5q-27 -6 -40.5 7.5t-13.5 28.5zM682 1729q8 4 12 4l2 4q-4 -2 -7 -3t-7 -5zM684 1747q4 0 8 8q-4 -4 -8 -6t0 -2zM844 1748q0 15 13 25.5t44 0.5h2 q10 0 15 -15v-4v-2q4 -12 -0.5 -24.5t-20.5 -16.5q-27 -6 -40 7.5t-13 28.5zM874 1729q8 4 13 4l2 4q-4 -2 -7.5 -3t-7.5 -5zM877 1747q4 0 8 8q-4 -4 -8 -6t0 -2zM1337 1356.5q-2 -60.5 2 -107.5q6 -80 24.5 -155.5t43.5 -151.5t51.5 -149.5t48.5 -149.5q35 37 66 77t59 81 q45 68 82 145.5t52.5 159.5t4 164t-60.5 155q-29 45 -77 84t-103 52q-72 16 -112 -12.5t-59.5 -80t-21.5 -112z" />
<glyph unicode="&#x2c6;" horiz-adv-x="456" d="M51 1404q-14 17 2 38l64 55q33 35 67 78t95 86q18 12 40.5 -12.5t42 -61.5t33 -75.5t15.5 -53.5q4 -16 -11.5 -19t-19.5 11q-8 45 -36 78t-50 69q-27 -23 -50.5 -49t-48 -54t-50 -53.5t-56.5 -43.5q-23 -10 -37 7z" />
<glyph unicode="&#x2dc;" horiz-adv-x="591" d="M56.5 1533q-7.5 9 2.5 19q23 23 43.5 44.5t42.5 41.5q43 43 74 33t55.5 -39.5t45 -64.5t45.5 -41q20 -6 40.5 0t40 17t39 24.5t37.5 21.5q14 4 19.5 -7t-4.5 -21q-25 -14 -59 -38t-68.5 -37t-67.5 -10t-57 42q-16 25 -29.5 50t-38.5 42q-39 -10 -72.5 -33.5t-66.5 -48.5 q-14 -4 -21.5 5z" />
<glyph unicode="&#x2000;" horiz-adv-x="1029" />
<glyph unicode="&#x2001;" horiz-adv-x="2059" />
<glyph unicode="&#x2002;" horiz-adv-x="1029" />
<glyph unicode="&#x2003;" horiz-adv-x="2059" />
<glyph unicode="&#x2004;" horiz-adv-x="686" />
<glyph unicode="&#x2005;" horiz-adv-x="514" />
<glyph unicode="&#x2006;" horiz-adv-x="343" />
<glyph unicode="&#x2007;" horiz-adv-x="343" />
<glyph unicode="&#x2008;" horiz-adv-x="257" />
<glyph unicode="&#x2009;" horiz-adv-x="411" />
<glyph unicode="&#x200a;" horiz-adv-x="114" />
<glyph unicode="&#x2010;" horiz-adv-x="456" d="M33 313.5q4 12.5 18 8.5q31 -10 68 -8.5t78 7t87 11.5t97 4q16 -2 16 -16.5t-16 -14.5q-25 -4 -65 -16.5t-86 -19.5t-96 -4t-93 28q-12 8 -8 20.5z" />
<glyph unicode="&#x2011;" horiz-adv-x="456" d="M33 313.5q4 12.5 18 8.5q31 -10 68 -8.5t78 7t87 11.5t97 4q16 -2 16 -16.5t-16 -14.5q-25 -4 -65 -16.5t-86 -19.5t-96 -4t-93 28q-12 8 -8 20.5z" />
<glyph unicode="&#x2012;" horiz-adv-x="456" d="M33 313.5q4 12.5 18 8.5q31 -10 68 -8.5t78 7t87 11.5t97 4q16 -2 16 -16.5t-16 -14.5q-25 -4 -65 -16.5t-86 -19.5t-96 -4t-93 28q-12 8 -8 20.5z" />
<glyph unicode="&#x2013;" horiz-adv-x="1115" d="M35 313.5q11 12.5 50 8.5q87 -10 191 -8.5t219 7t244 11.5t272 4q45 -2 45 -16.5t-45 -14.5q-70 -4 -182 -16.5t-241.5 -19.5t-269.5 -4t-261 28q-33 8 -22 20.5z" />
<glyph unicode="&#x2014;" horiz-adv-x="2139" d="M37.5 313.5q22.5 12.5 101.5 8.5q174 -10 381.5 -8.5t437.5 7t488 11.5t544 4q90 -2 90 -16.5t-90 -14.5q-140 -4 -364.5 -16.5t-482.5 -19.5t-538.5 -4t-522.5 28q-67 8 -44.5 20.5z" />
<glyph unicode="&#x202f;" horiz-adv-x="411" />
<glyph unicode="&#x205f;" horiz-adv-x="514" />
<glyph unicode="&#x20ac;" horiz-adv-x="946" d="M9.5 442.5q0.5 12.5 13.5 14.5l192 12q10 47 29.5 92t44.5 88q-61 4 -123 15.5t-125 37.5q-12 8 -8 20.5t18 8.5q66 -20 134.5 -26.5t136.5 -4.5q23 35 48 66t52 59q23 23 79 68t120.5 83t124 55.5t85.5 -13.5q4 -12 -3 -19.5t-21 -1.5q0 2 -4 7q-53 -6 -109.5 -31 t-111 -65t-103.5 -92t-88 -111q49 2 88 3t76 0t76 -3.5t88 -2.5q16 -2 16 -16t-16 -14q-55 -6 -99.5 -9.5t-85 -6.5t-82.5 -4t-96 -3q-27 -43 -45 -88t-30 -90q55 2 101 4t89 2t89 -2t104 -4q16 -2 16 -16.5t-16 -14.5q-57 -4 -104.5 -7t-92.5 -6t-91 -4t-104 -1 q-10 -59 -0.5 -113.5t37.5 -101.5q43 -70 108.5 -110t141.5 -63.5t155 -32.5t150 -17q16 -2 16.5 -16.5t-16.5 -14.5q-41 2 -89 3t-97 6t-96 15.5t-84 28.5q-35 16 -73 29.5t-67 42.5q-25 25 -54.5 46t-43.5 54t-29.5 62.5t-21.5 64.5q-12 53 -2 117h-92t-92 4 q-14 4 -13.5 16.5z" />
<glyph unicode="&#x2122;" horiz-adv-x="716" d="M9.5 1198q0.5 12 13.5 14q86 10 173 25.5t173 5.5q16 -2 16 -16.5t-16 -14.5q-35 -4 -70 -15t-70 -19q-4 -2 -12 -2q12 -45 25.5 -108.5t7.5 -129.5q-2 -12 -14.5 -15t-16.5 11q-12 61 -26.5 118.5t-14.5 118.5q-39 -4 -74.5 1.5t-80.5 9.5q-14 4 -13.5 16zM301 1016 q8 18 20.5 28.5t25.5 20.5t24.5 25.5t19.5 39.5q2 10 3 23.5t5 26.5q10 18 27.5 17t22.5 -23q-2 -16 -5.5 -39t-2.5 -45.5t8.5 -40t29.5 -25.5q18 18 27.5 43t15.5 52.5t11.5 55t13.5 50.5q10 23 30.5 23.5t24.5 -27.5q0 -23 -2 -64t0 -83t10 -76.5t29 -47.5q10 -10 4 -20 t-18 -6q-31 14 -46.5 43.5t-23.5 68.5q-16 -41 -45 -65q-18 -12 -35 -8q-72 29 -84 90q-12 -14 -26 -27q-10 -8 -20.5 -12.5t-18.5 -14.5q-10 -10 -19.5 -2.5t-5.5 19.5z" />
<glyph unicode="&#x25fc;" horiz-adv-x="481" d="M0 0v481h481v-481h-481z" />
</font>
</defs>
</svg>
